Начать новую тему Ответить на тему
Статистика раздачи
Размер: 40.2 ГБ | Добавлен: 05 июн 2020, 23:15 | Скачали: 0
Сидеров: 0  [0 байт/сек]    Личеров: 0  [0 байт/сек]
Пред. тема | След. тема 

Автор
Сообщение

СообщениеДобавлено: 05 июн 2020, 23:15 

Ответить с цитатой 

Джузеппе Верди: "Отелло" / Giuseppe Verdi: Otello
Год выпуска: 2015
Лейбл: Decca
Жанр: Opera
Продолжительность: 02:42:11
Язык: English
Перевод: нет
Субтитры: English, Chinese, French, German, Korean
Режиссер/Хореограф: David Kneuss
Дирижер: Semyon Bychkov/Семен Бычков
Исполнители: Johan Botha (Otello), Renée Fleming (Desdemona), Falk Struckmann (Iago) & Michael Fabiano (Cassio), Renée Tatum (Emilia), James Morris (Lodovico), Eduardo Valdes (Roderigo), The Metropolitan Opera, Chorus & Ballet
Описание: Verdi's late masterpiece is presented in Elijah Moshinsky's Met production with sumptuous sets and period costumes. Semuon Bychkov conducts an all-star cast led by South African Heldentenor Johan Botha in the title role with a voice of "impressive size and bronze color" (New Yorк Times). Renee Fleming's Desdemona enshrines one of her signature roles in a definitive performance: "she knows exactly how to spin the gentle lines of the 'Willow Song' and 'Ave Maria' so that they softly fill the hall" (New Yorк Times) A strong supporting cast includes the superb Falk Struckmann as lago and star tenor Michael Fabiano as Cassio.
Качество видео: Blu-ray
Формат/Контейнер: BDMV
Видео кодек: H.264
Аудио кодек: PCM, DTS
Видео поток: MPEG-4 AVC Video / 27031 kbps / 1080i / 29,970 fps / 16:9 / High Profile 4.1
Аудио поток#1: English / LPCM Audio / 2.0 / 48 kHz / 2304 kbps / 24-bit
Аудио поток#2: English / DTS-HD Master Audio / 5.1 / 48 kHz / 3875 kbps / 24-bit (DTS Core: 5.1 / 48 kHz / 1509 kbps / 24-bit)
Код:
Disc Title:     Verdi.Otello.Johan Botha, Renée Fleming, Met Opera, Semyon Bychkov.2015.BD1080i
Disc Size:      43 165 321 013 bytes
Protection:     AACS
BD-Java:        No
BDInfo:         0.5.8
Notes:
BDINFO HOME:
  Cinema Squid
    [url=http://www.cinemasquid.com/blu-ray/tools/bdinfo]http://www.cinemasquid.com/blu-ray/tools/bdinfo[/url]
INCLUDES FORUMS REPORT FOR:
  AVS Forum Blu-ray Audio and Video Specifications Thread
    [url=http://www.avsforum.com/avs-vb/showthread.php?t=1155731]http://www.avsforum.com/avs-vb/showthread.php?t=1155731[/url]
********************
PLAYLIST: 00001.MPLS
********************
<--- BEGIN FORUMS PASTE --->
Код:
Код:
                                                                                Total   Video
Title                                                           Codec   Length  Movie Size      Disc Size       Bitrate Bitrate Main Audio Track                          Secondary Audio Track
-----                                                           ------  ------- --------------  --------------  ------- ------- ------------------                        ---------------------
00001.MPLS                                                      AVC     0:09:27 2 587 342 848   43 165 321 013  36,46   28,93   LPCM 2.0 2304Kbps (48kHz/24-bit)

Код:
Код:
DISC INFO:
Disc Title:     Verdi.Otello.Johan Botha, Renée Fleming, Met Opera, Semyon Bychkov.2015.BD1080i
Disc Size:      43 165 321 013 bytes
Protection:     AACS
BD-Java:        No
BDInfo:         0.5.8
PLAYLIST REPORT:
Name:                   00001.MPLS
Length:                 0:09:27.733 (h:m:s.ms)
Size:                   2 587 342 848 bytes
Total Bitrate:          36,46 Mbps
(*) Indicates included stream hidden by this playlist.
VIDEO:
Codec                   Bitrate             Description
-----                   -------             -----------
MPEG-4 AVC Video        28929 kbps          1080i / 29,970 fps / 16:9 / High Profile 4.1
AUDIO:
Codec                           Language        Bitrate         Description
-----                           --------        -------         -----------
LPCM Audio                      English         2304 kbps       2.0 / 48 kHz / 2304 kbps / 24-bit
DTS-HD Master Audio             French          3351 kbps       5.1 / 48 kHz / 3351 kbps / 24-bit (DTS Core: 5.1 / 48 kHz / 1509 kbps / 24-bit)
SUBTITLES:
Codec                           Language        Bitrate         Description
-----                           --------        -------         -----------
* Presentation Graphics         English         0,021 kbps
* Presentation Graphics         French          0,021 kbps
* Presentation Graphics         German          0,021 kbps
* Presentation Graphics         Korean          0,021 kbps
* Presentation Graphics         Chinese         0,021 kbps
FILES:
Name            Time In         Length          Size            Total Bitrate
----            -------         ------          ----            -------------
00004.M2TS      0:00:00.000     0:09:26.732     2 586 753 024   36 515
00301.M2TS      0:09:26.732     0:00:01.000     589 824         4 714
CHAPTERS:
Number          Time In         Length          Avg Video Rate  Max 1-Sec Rate  Max 1-Sec Time  Max 5-Sec Rate  Max 5-Sec Time  Max 10Sec Rate  Max 10Sec Time  Avg Frame Size  Max Frame Size  Max Frame Time
------          -------         ------          --------------  --------------  --------------  --------------  --------------  --------------  --------------  --------------  --------------  --------------
1               0:09:26.732     0:00:01.000     16 407 588 kbps 42 550 kbps     00:06:07.633    39 059 kbps     00:06:06.399    36 877 kbps     00:06:05.231    120 658 bytes   783 023 bytes   00:01:47.874
STREAM DIAGNOSTICS:
File            PID             Type            Codec           Language                Seconds                 Bitrate                 Bytes           Packets
----            ---             ----            -----           --------                --------------          --------------          -------------   -----
00004.M2TS      4113 (0x1011)   0x1B            AVC                                     566,633                 28 985                  2 052 983 163   11 167 380
00004.M2TS      4352 (0x1100)   0x80            LPCM            eng (English)           566,633                 2 311                   163 673 068     906 776
00004.M2TS      4353 (0x1101)   0x86            DTS-HD MA       fra (French)            566,633                 3 355                   237 612 732     1 379 477
00301.M2TS      4113 (0x1011)   0x1B            AVC                                     0,901                   145                     16 308          112
00301.M2TS      4352 (0x1100)   0x80            LPCM            eng (English)           0,901                   2 565                   288 800         1 600
00301.M2TS      4353 (0x1101)   0x86            DTS-HD MA       fra (French)            0,901                   1 736                   195 520         1 222
00301.M2TS      4608 (0x1200)   0x90            PGS             eng (English)           0,901                   13                      1 490           15
00301.M2TS      4609 (0x1201)   0x90            PGS             fra (French)            0,901                   13                      1 490           15
00301.M2TS      4610 (0x1202)   0x90            PGS             deu (German)            0,901                   13                      1 490           15
00301.M2TS      4611 (0x1203)   0x90            PGS             kor (Korean)            0,901                   13                      1 490           15
00301.M2TS      4612 (0x1204)   0x90            PGS             zho (Chinese)           0,901                   13                      1 490           15

Код:
<---- END FORUMS PASTE ---->
QUICK SUMMARY:
Disc Title: Verdi.Otello.Johan Botha, Renée Fleming, Met Opera, Semyon Bychkov.2015.BD1080i
Disc Size: 43 165 321 013 bytes
Protection: AACS
BD-Java: No
Playlist: 00001.MPLS
Size: 2 587 342 848 bytes
Length: 0:09:27.733
Total Bitrate: 36,46 Mbps
Video: MPEG-4 AVC Video / 28929 kbps / 1080i / 29,970 fps / 16:9 / High Profile 4.1
Audio: English / LPCM Audio / 2.0 / 48 kHz / 2304 kbps / 24-bit
Audio: French / DTS-HD Master Audio / 5.1 / 48 kHz / 3351 kbps / 24-bit (DTS Core: 5.1 / 48 kHz / 1509 kbps / 24-bit)
* Subtitle: English / 0,021 kbps
* Subtitle: French / 0,021 kbps
* Subtitle: German / 0,021 kbps
* Subtitle: Korean / 0,021 kbps
* Subtitle: Chinese / 0,021 kbps
********************
PLAYLIST: 00200.MPLS
********************
<--- BEGIN FORUMS PASTE --->
Код:
Код:
                                                                                Total   Video
Title                                                           Codec   Length  Movie Size      Disc Size       Bitrate Bitrate Main Audio Track                          Secondary Audio Track
-----                                                           ------  ------- --------------  --------------  ------- ------- ------------------                        ---------------------
00200.MPLS                                                      AVC     0:00:21 24 367 104      43 165 321 013  9,06    8,59

Код:
Код:
DISC INFO:
Disc Title:     Verdi.Otello.Johan Botha, Renée Fleming, Met Opera, Semyon Bychkov.2015.BD1080i
Disc Size:      43 165 321 013 bytes
Protection:     AACS
BD-Java:        No
BDInfo:         0.5.8
PLAYLIST REPORT:
Name:                   00200.MPLS
Length:                 0:00:21.521 (h:m:s.ms)
Size:                   24 367 104 bytes
Total Bitrate:          9,06 Mbps
VIDEO:
Codec                   Bitrate             Description
-----                   -------             -----------
MPEG-4 AVC Video        8589 kbps           1080i / 29,970 fps / 16:9 / High Profile 4.1
FILES:
Name            Time In         Length          Size            Total Bitrate
----            -------         ------          ----            -------------
00200.M2TS      0:00:00.000     0:00:12.512     23 543 808      15 053
00201.M2TS      0:00:12.512     0:00:08.008     792 576         792
00300.M2TS      0:00:20.520     0:00:01.000     30 720          246
CHAPTERS:
Number          Time In         Length          Avg Video Rate  Max 1-Sec Rate  Max 1-Sec Time  Max 5-Sec Rate  Max 5-Sec Time  Max 10Sec Rate  Max 10Sec Time  Avg Frame Size  Max Frame Size  Max Frame Time
------          -------         ------          --------------  --------------  --------------  --------------  --------------  --------------  --------------  --------------  --------------  --------------
1               0:00:00.000     0:00:12.545     14 318 kbps     24 493 kbps     00:00:00.200    15 378 kbps     00:00:06.940    14 185 kbps     00:00:01.935    59 561 bytes    325 235 bytes   00:00:02.001
2               0:00:12.545     0:00:07.974     639 kbps        1 894 kbps      00:00:12.545    562 kbps        00:00:12.545    0 kbps          00:00:00.000    2 666 bytes     16 335 bytes    00:00:19.285
3               0:00:20.520     0:00:01.000     111 kbps        0 kbps          00:00:00.000    0 kbps          00:00:00.000    0 kbps          00:00:00.000    478 bytes       2 441 bytes     00:00:21.121
STREAM DIAGNOSTICS:
File            PID             Type            Codec           Language                Seconds                 Bitrate                 Bytes           Packets
----            ---             ----            -----           --------                --------------          --------------          -------------   -----
00200.M2TS      4113 (0x1011)   0x1B            AVC                                     12,379                  14 507                  22 447 353      122 204
00201.M2TS      4113 (0x1011)   0x1B            AVC                                     7,941                   646                     641 715         3 858
00300.M2TS      4113 (0x1011)   0x1B            AVC                                     0,901                   145                     16 308          112

Код:
<---- END FORUMS PASTE ---->
QUICK SUMMARY:
Disc Title: Verdi.Otello.Johan Botha, Renée Fleming, Met Opera, Semyon Bychkov.2015.BD1080i
Disc Size: 43 165 321 013 bytes
Protection: AACS
BD-Java: No
Playlist: 00200.MPLS
Size: 24 367 104 bytes
Length: 0:00:21.521
Total Bitrate: 9,06 Mbps
Video: MPEG-4 AVC Video / 8589 kbps / 1080i / 29,970 fps / 16:9 / High Profile 4.1


#777
Правила, инструкции, FAQ!!!
Торрент  Добавлен [05 июн 2020, 23:15] Скачать торрент Магнет ссылка
Скачать торрент
[ Размер 204.53 КБ / Просмотров 4 ]

Статус
Проверен 
 
Размер  40.2 ГБ
Приватный: Нет (DHT включён)
.torrent скачан  0
 


     Отправить личное сообщение
   
Страница 1 из 1
Показать сообщения за:  Поле сортировки  
Начать новую тему Ответить на тему


Сейчас этот форум просматривают: нет зарегистрированных пользователей и гости: 0


Вы не можете начинать темы
Вы не можете отвечать на сообщения
Вы не можете редактировать свои сообщения
Вы не можете удалять свои сообщения
Вы не можете добавлять вложения

Перейти:  
cron