Начать новую тему Ответить на тему
Статистика раздачи
Размер: 19.58 ГБ | Добавлен: 05 июн 2020, 22:44 | Скачали: 0
Сидеров: 0  [0 байт/сек]    Личеров: 0  [0 байт/сек]
Пред. тема | След. тема 

Автор
Сообщение

СообщениеДобавлено: 05 июн 2020, 22:44 

Ответить с цитатой 

Мадам Баттерфляй / Madama Butterfly
Год выпуска: 2016
Лейбл: MetOpera
Страна-производитель: США
Жанр: Опера
Продолжительность: 01:07:44 + 01:00:21 + 00:45:35
Язык: Итальянский
Перевод: субтитры
Субтитры: русские, английские
Режиссер/Хореограф: Энтони Мингелла / Anthony Minghella
Исполнители:
Чио-Чио-Сан – Кристине Ополайс / Kristine Opolais
Сузуки– Мария Зифчак / Maria Zifchak
Пинкертон – Роберто Аланья / Roberto Alagna
Шарплес – Дуэйн Крофт / Dwayne Croft
Описание: Запись Live HD из "Metropolitan Opera", New-York, 2 апреля, 2016.
Качество видео: HDTVRip
Формат/Контейнер: MKV
Видео кодек: MPEG2
Аудио кодек: AC3
Видео поток: MPEG2 Video 1920x1080 18.4 Mbps 25fps
Аудио поток: Dolby AC3 48000Hz 6ch 448kbps
1 часть
Общее
Уникальный идентификатор : 219615890871170279186465870834018409283 (0xA5387B6793A9829B9CF6895A25E9DB43)
Полное имя : G:\doc\Feeds\Madama Butterfly\MB\Madama.Butterfly.1p.Met.Opera.mkv
Формат : Matroska
Версия формата : Version 4 / Version 2
Размер файла : 7,52 Гбайт
Продолжительность : 1 ч. 7 м.
Режим общего битрейта : Переменный
Общий поток : 15,9 Мбит/сек
Дата кодирования : UTC 2016-04-04 17:26:53
Программа кодирования : mkvmerge v8.5.0 ('Vanishing Act') 64bit
Библиотека кодирования : libebml v1.3.1 + libmatroska v1.4.2
DURATION : 00:48:47.695000000
NUMBER_OF_FRAMES : 329
NUMBER_OF_BYTES : 10914
_STATISTICS_WRITING_APP : mkvmerge v8.5.0 ('Vanishing Act') 64bit
_STATISTICS_WRITING_DATE_UTC : 2016-04-04 17:26:53
_STATISTICS_TAGS : BPS DURATION NUMBER_OF_FRAMES NUMBER_OF_BYTES
Видео
Идентификатор : 1
Формат : MPEG Video
Версия формата : Version 2
Профиль формата : Main@High
Параметр BVOP формата : Нет
Параметр матрицы формата : Выборочная
Идентификатор кодека : V_MPEG2
Идентификатор кодека/Информация : MPEG 1 or 2 Video
Продолжительность : 1 ч. 7 м.
Вид битрейта : Переменный
Битрейт : 15,1 Мбит/сек
Максимальный битрейт : 16,0 Мбит/сек
Ширина : 1920 пикселей
Высота : 1080 пикселей
Соотношение сторон : 16:9
Режим частоты кадров : Постоянный
Частота кадров : 25,000 кадров/сек
Цветовое пространство : YUV
Субдискретизация насыщенности : 4:2:0
Битовая глубина : 8 бит
Тип развёртки : Чересстрочная
Порядок развёртки : Верхнее поле первое
Метод сжатия : С потерями
Бит/(Пиксели*Кадры) : 0.292
Временной код первого кадра : 00:00:00:00
Оригинал временного кода : Group of pictures header
Размер потока : 7,16 Гбайт (95%)
Библиотека кодирования : (dvd5: Dec 5 2013)
Default : Да
Forced : Нет
Аудио
Идентификатор : 2
Формат : AC-3
Формат/Информация : Audio Coding 3
Расширение режима : CM (complete main)
Параметр Endianness формата : Big
Идентификатор кодека : A_AC3
Продолжительность : 1 ч. 7 м.
Вид битрейта : Постоянный
Битрейт : 448 Кбит/сек
Каналы : 6 каналов
Расположение каналов : Front: L C R, Side: L R, LFE
Частота : 48,0 КГц
Битовая глубина : 16 бит
Метод сжатия : С потерями
Задержка видео : -80 мс.
Размер потока : 217 Мбайт (3%)
Default : Да
Forced : Нет
Текст #1
Идентификатор : 3
Формат : UTF-8
Идентификатор кодека : S_TEXT/UTF8
Идентификатор кодека/Информация : UTF-8 Plain Text
Язык : Russian
Default : Да
Forced : Нет
Текст #2
Идентификатор : 4
Формат : UTF-8
Идентификатор кодека : S_TEXT/UTF8
Идентификатор кодека/Информация : UTF-8 Plain Text
Язык : English
Default : Нет
Forced : Нет
2 часть
Общее
Уникальный идентификатор : 211331932833769831586248702867493375349 (0x9EFD0CBD65CD07EF9A2EB36A14D84D75)
Полное имя : G:\doc\Feeds\Madama Butterfly\MB\Madama.Butterfly.2p.Met.Opera.mkv
Формат : Matroska
Версия формата : Version 4 / Version 2
Размер файла : 6,88 Гбайт
Продолжительность : 1 ч. 0 м.
Режим общего битрейта : Переменный
Общий поток : 16,3 Мбит/сек
Дата кодирования : UTC 2016-04-04 18:10:00
Программа кодирования : mkvmerge v8.5.0 ('Vanishing Act') 64bit
Библиотека кодирования : libebml v1.3.1 + libmatroska v1.4.2
DURATION : 00:44:48.026000000
NUMBER_OF_FRAMES : 252
NUMBER_OF_BYTES : 8904
_STATISTICS_WRITING_APP : mkvmerge v8.5.0 ('Vanishing Act') 64bit
_STATISTICS_WRITING_DATE_UTC : 2016-04-04 18:10:00
_STATISTICS_TAGS : BPS DURATION NUMBER_OF_FRAMES NUMBER_OF_BYTES
Видео
Идентификатор : 1
Формат : MPEG Video
Версия формата : Version 2
Профиль формата : Main@High
Параметр BVOP формата : Нет
Параметр матрицы формата : Выборочная
Идентификатор кодека : V_MPEG2
Идентификатор кодека/Информация : MPEG 1 or 2 Video
Продолжительность : 1 ч. 0 м.
Вид битрейта : Переменный
Битрейт : 15,5 Мбит/сек
Максимальный битрейт : 16,4 Мбит/сек
Ширина : 1920 пикселей
Высота : 1080 пикселей
Соотношение сторон : 16:9
Режим частоты кадров : Постоянный
Частота кадров : 25,000 кадров/сек
Цветовое пространство : YUV
Субдискретизация насыщенности : 4:2:0
Битовая глубина : 8 бит
Тип развёртки : Чересстрочная
Порядок развёртки : Верхнее поле первое
Метод сжатия : С потерями
Бит/(Пиксели*Кадры) : 0.300
Временной код первого кадра : 00:00:00:00
Оригинал временного кода : Group of pictures header
Размер потока : 6,55 Гбайт (95%)
Библиотека кодирования : (dvd5: Dec 5 2013)
Default : Да
Forced : Нет
Аудио
Идентификатор : 2
Формат : AC-3
Формат/Информация : Audio Coding 3
Расширение режима : CM (complete main)
Параметр Endianness формата : Big
Идентификатор кодека : A_AC3
Продолжительность : 1 ч. 0 м.
Вид битрейта : Постоянный
Битрейт : 448 Кбит/сек
Каналы : 6 каналов
Расположение каналов : Front: L C R, Side: L R, LFE
Частота : 48,0 КГц
Битовая глубина : 16 бит
Метод сжатия : С потерями
Задержка видео : -80 мс.
Размер потока : 193 Мбайт (3%)
Default : Да
Forced : Нет
Текст #1
Идентификатор : 3
Формат : UTF-8
Идентификатор кодека : S_TEXT/UTF8
Идентификатор кодека/Информация : UTF-8 Plain Text
Язык : Russian
Default : Да
Forced : Нет
Текст #2
Идентификатор : 4
Формат : UTF-8
Идентификатор кодека : S_TEXT/UTF8
Идентификатор кодека/Информация : UTF-8 Plain Text
Язык : English
Default : Нет
Forced : Нет
3 часть
Общее
Уникальный идентификатор : 185574879987337318081189901582107903274 (0x8B9C6BFD026C4787BA097F0F4237852A)
Полное имя : G:\doc\Feeds\Madama Butterfly\MB\Madama.Butterfly.3p.Met.Opera.mkv
Формат : Matroska
Версия формата : Version 4 / Version 2
Размер файла : 5,18 Гбайт
Продолжительность : 45 м.
Режим общего битрейта : Переменный
Общий поток : 16,3 Мбит/сек
Дата кодирования : UTC 2016-04-04 18:21:19
Программа кодирования : mkvmerge v8.5.0 ('Vanishing Act') 64bit
Библиотека кодирования : libebml v1.3.1 + libmatroska v1.4.2
DURATION : 00:27:13.312000000
NUMBER_OF_FRAMES : 120
NUMBER_OF_BYTES : 3568
_STATISTICS_WRITING_APP : mkvmerge v8.5.0 ('Vanishing Act') 64bit
_STATISTICS_WRITING_DATE_UTC : 2016-04-04 18:21:19
_STATISTICS_TAGS : BPS DURATION NUMBER_OF_FRAMES NUMBER_OF_BYTES
Видео
Идентификатор : 1
Формат : MPEG Video
Версия формата : Version 2
Профиль формата : Main@High
Параметр BVOP формата : Нет
Параметр матрицы формата : Выборочная
Идентификатор кодека : V_MPEG2
Идентификатор кодека/Информация : MPEG 1 or 2 Video
Продолжительность : 45 м.
Вид битрейта : Переменный
Битрейт : 15,5 Мбит/сек
Максимальный битрейт : 16,2 Мбит/сек
Ширина : 1920 пикселей
Высота : 1080 пикселей
Соотношение сторон : 16:9
Режим частоты кадров : Постоянный
Частота кадров : 25,000 кадров/сек
Цветовое пространство : YUV
Субдискретизация насыщенности : 4:2:0
Битовая глубина : 8 бит
Тип развёртки : Чересстрочная
Порядок развёртки : Верхнее поле первое
Метод сжатия : С потерями
Бит/(Пиксели*Кадры) : 0.299
Временной код первого кадра : 00:00:00:00
Оригинал временного кода : Group of pictures header
Размер потока : 4,93 Гбайт (95%)
Библиотека кодирования : (dvd5: Dec 5 2013)
Default : Да
Forced : Нет
Аудио
Идентификатор : 2
Формат : AC-3
Формат/Информация : Audio Coding 3
Расширение режима : CM (complete main)
Параметр Endianness формата : Big
Идентификатор кодека : A_AC3
Продолжительность : 45 м.
Вид битрейта : Постоянный
Битрейт : 448 Кбит/сек
Каналы : 6 каналов
Расположение каналов : Front: L C R, Side: L R, LFE
Частота : 48,0 КГц
Битовая глубина : 16 бит
Метод сжатия : С потерями
Задержка видео : -80 мс.
Размер потока : 146 Мбайт (3%)
Default : Да
Forced : Нет
Текст #1
Идентификатор : 3
Формат : UTF-8
Идентификатор кодека : S_TEXT/UTF8
Идентификатор кодека/Информация : UTF-8 Plain Text
Язык : Russian
Default : Да
Forced : Нет
Текст #2
Идентификатор : 4
Формат : UTF-8
Идентификатор кодека : S_TEXT/UTF8
Идентификатор кодека/Информация : UTF-8 Plain Text
Язык : English
Default : Нет
Forced : Нет


с субтитрами

в миниатюрах 1 части
Правила, инструкции, FAQ!!!
Торрент  Добавлен [05 июн 2020, 22:44] Скачать торрент Магнет ссылка
Скачать торрент
[ Размер 49.59 КБ / Просмотров 4 ]

Статус
Проверен 
 
Размер  19.58 ГБ
Приватный: Нет (DHT включён)
.torrent скачан  0
 


     Отправить личное сообщение
   
Страница 1 из 1
Показать сообщения за:  Поле сортировки  
Начать новую тему Ответить на тему


Сейчас этот форум просматривают: нет зарегистрированных пользователей и гости: 0


Вы не можете начинать темы
Вы не можете отвечать на сообщения
Вы не можете редактировать свои сообщения
Вы не можете удалять свои сообщения
Вы не можете добавлять вложения

Перейти:  
cron