Начать новую тему Ответить на тему
Статистика раздачи
Размер: 517.51 МБ | Добавлен: 01 янв 2020, 22:58 | Скачали: 0
Сидеров: 2  [0 байт/сек]    Личеров: 0  [0 байт/сек]
Пред. тема | След. тема 

Автор
Сообщение

СообщениеДобавлено: 01 янв 2020, 22:58 

Ответить с цитатой 

Dalida - The QueenЖанр: Disco
Год выпуска диска: 2003
Производитель диска: Orlando/Barclay, A Universal Music Company
Аудио кодек: APE
Тип рипа: image+.cue
Битрейт аудио: lossless
Продолжительность: 70.29
Трэклист:
1 Salma Ya Salama [Sueño Flamenco]
2 Besame Mucho [Paris Filter 2001 Mix]
3 Laissez-Moi Danser [Monday Tuesday by Cerrone]
4 Americana
5 Glamenco "Oriental"
6 Quand S'Arrêtent Les Violons
7 J'Attendrai [Beach Tempo Mix 2001]
8 Io T'Amero [Tres Palabras]
9 Petit Homme (Little Man)
10 Rio Do Brasil
11 Femme Est La Nuit
12 Gigi in Paradisco [Paradisco Mix]
13 Generation Dalida
14 Darla Dirladada [Collection Mix]
15 La-bas Dans Le Noir
Код:
Exact Audio Copy V0.99 prebeta 4 from 23. January 2008
Отчёт EAC об извлечении, выполненном 13. декабря 2009, 19:30
Dalida / The Queen
Дисковод: Optiarc DVD RW AD-5200A   Adapter: 1  ID: 0
Режим чтения                 : Достоверность
Использование точного потока : Да
Отключение кэша аудио        : Да
Использование указателей C2  : Нет
Коррекция смещения при чтении                     : 48
Способность читать области Lead-in и Lead-out     : Нет
Заполнение пропущенных сэмплов тишиной            : Да
Удаление блоков с тишиной в начале и конце        : Нет
При вычислениях CRC использовались нулевые сэмплы : Да
Интерфейс                                         : Встроенный Win32-интерфейс для Win NT/2000
Выходной формат : Внутренние WAV-операции
Формат сэмплов  : 44.100 Гц; 16 бит; стерео
TOC извлечённого CD
     Трек |   Старт  | Длительность | Начальный сектор | Конечный сектор
    ---------------------------------------------------------------------
       1  |  0:00.00 |    4:37.20   |           0      |      20794
       2  |  4:37.20 |    5:21.53   |       20795      |      44922
       3  |  9:58.73 |    3:56.52   |       44923      |      62674
       4  | 13:55.50 |    5:31.52   |       62675      |      87551
       5  | 19:27.27 |    4:16.08   |       87552      |     106759
       6  | 23:43.35 |    5:18.00   |      106760      |     130609
       7  | 29:01.35 |    4:30.10   |      130610      |     150869
       8  | 33:31.45 |    4:32.34   |      150870      |     171303
       9  | 38:04.04 |    5:00.73   |      171304      |     193876
      10  | 43:05.02 |    5:34.12   |      193877      |     218938
      11  | 48:39.14 |    4:30.62   |      218939      |     239250
      12  | 53:10.01 |    5:06.19   |      239251      |     262219
      13  | 58:16.20 |    5:51.58   |      262220      |     288602
      14  | 64:08.03 |    6:21.14   |      288603      |     317191
      15  | 70:29.17 |    3:45.57   |      317192      |     334123
Характеристики диапазона извлечения и сообщения об ошибках
Выбранный диапазон
     Имя файла C:\Users\ART\Music\далида\Dalida - The Queen.wav
     Пиковый уровень 100.0 %
     Качество диапазона 99.9 %
     CRC копии 363706A2
     Копирование... OK
Ошибок не произошло
AccurateRip: сводка
Трек  1  нет в базе данных
Трек  2  нет в базе данных
Трек  3  нет в базе данных
Трек  4  нет в базе данных
Трек  5  нет в базе данных
Трек  6  нет в базе данных
Трек  7  нет в базе данных
Трек  8  нет в базе данных
Трек  9  нет в базе данных
Трек 10  нет в базе данных
Трек 11  нет в базе данных
Трек 12  нет в базе данных
Трек 13  нет в базе данных
Трек 14  нет в базе данных
Трек 15  нет в базе данных
Ни одного трека нет в базе AccurateRip
Конец отчёта
Доп. информация: …Прекрасная девушка, родившаяся в стране Пирамид, которых, как утверждает мудрость, боится само время, мечтала стать известной, знаменитой. Ее мечта осуществилась; ей удалось и большее. Далида стоит в одном ряду с культовыми личностями в культуре 20 века, творчество и судьба которых сделали их легендами.
Сэмплы можно послушать тут
http://www.amazon.com/gp/recsradio/radio/B0000AYLMB/ref=pd_krex_listen_dp_img?ie=...TagSuffix=dp_img
Буклет

Правила, инструкции, FAQ!!!
Торрент  Добавлен [01 янв 2020, 22:58] Скачать торрент Магнет ссылка
Скачать торрент
[ Размер 11.24 КБ / Просмотров 6 ]

Статус
Проверен 
 
Размер  517.51 МБ
Приватный: Нет (DHT включён)
.torrent скачан  0
 


     Отправить личное сообщение
   
Страница 1 из 1
Показать сообщения за:  Поле сортировки  
Начать новую тему Ответить на тему


Сейчас этот форум просматривают: нет зарегистрированных пользователей и гости: 0


Вы не можете начинать темы
Вы не можете отвечать на сообщения
Вы не можете редактировать свои сообщения
Вы не можете удалять свои сообщения
Вы не можете добавлять вложения

Перейти:  
cron