Начать новую тему Ответить на тему
Статистика раздачи
Размер: 481.87 МБ | Добавлен: 15 дек 2020, 23:00 | Скачали: 0
Сидеров: 0  [0 байт/сек]    Личеров: 0  [0 байт/сек]
Пред. тема | След. тема 

Автор
Сообщение

СообщениеДобавлено: 15 дек 2020, 23:00 

Ответить с цитатой 

Atari Teenage Riot / The Future Of War
#777Жанр: Digital Hardcore, Breakcore, Noise
Носитель: CD
Страна-производитель диска (релиза): Japan
Год издания: 1997
Издатель (лейбл): Digital Hardcore Recordings
Номер по каталогу: DHR JAP CD6
Страна исполнителя (группы): Germany
Аудиокодек: FLAC (*.flac)
Тип рипа: image+.cue
Продолжительность: 0:58:34
Источник: собственный рип
Наличие сканов в содержимом раздачи: да
Треклист:
01. Get Up While You Can (3:29)
02. Fuck All! (3:09)
03. Sick To Death (3:41)
04. P.R.E.S.S. (4:19)
05. Deutschland (Has Gotta Die!) (3:03)
06. Destroy 2000 Years Of Culture (3:52)
07. Not Your Business (2:32)
08. You Can't Hold Us Back (4:01)
09. Heatwave (2:44)
10. Redefine The Enemy (3:59)
11. Death Star (5:24)
12. The Future Of War (3:49)
bonus tracks
13. She Sucks My Soul Away (4:30)
14. Strike (3:44)
15. Midijunkies (Gonna Fuck You Up) (Oscillate Mix) (6:20)
Код:
Exact Audio Copy V1.6 from 23. October 2020
EAC extraction logfile from 29. November 2020, 12:17
Atari Teenage Riot / The Future Of War
Used drive  : ASUS    DRW-1612BL   Adapter: 2  ID: 0
Read mode               : Secure
Utilize accurate stream : Yes
Defeat audio cache      : Yes
Make use of C2 pointers : No
Read offset correction                      : 6
Overread into Lead-In and Lead-Out          : No
Fill up missing offset samples with silence : Yes
Delete leading and trailing silent blocks   : No
Null samples used in CRC calculations       : Yes
Used interface                              : Installed external ASPI interface
Used output format              : User Defined Encoder
Selected bitrate                : 128 kBit/s
Quality                         : High
Add ID3 tag                     : No
Command line compressor         : C:\Program Files\EAC\Exact Audio Copy\Flac\flac.exe
Additional command line options : -V -8 -T "Date=%year%" -T "Genre=%genre%" %source%
TOC of the extracted CD
     Track |   Start  |  Length  | Start sector | End sector
    ---------------------------------------------------------
        1  |  0:00.00 |  3:28.67 |         0    |    15666
        2  |  3:28.67 |  3:08.55 |     15667    |    29821
        3  |  6:37.47 |  3:40.45 |     29822    |    46366
        4  | 10:18.17 |  4:19.05 |     46367    |    65796
        5  | 14:37.22 |  3:02.55 |     65797    |    79501
        6  | 17:40.02 |  3:51.48 |     79502    |    96874
        7  | 21:31.50 |  2:32.32 |     96875    |   108306
        8  | 24:04.07 |  4:00.50 |    108307    |   126356
        9  | 28:04.57 |  2:43.40 |    126357    |   138621
       10  | 30:48.22 |  3:58.65 |    138622    |   156536
       11  | 34:47.12 |  5:23.38 |    156537    |   180799
       12  | 40:10.50 |  3:48.65 |    180800    |   197964
       13  | 43:59.40 |  4:30.07 |    197965    |   218221
       14  | 48:29.47 |  3:43.63 |    218222    |   235009
       15  | 52:13.35 |  6:20.12 |    235010    |   263521
Range status and errors
Selected range
     Filename C:\darkbrides\Atari Teenage Riot - The Future Of War.wav
     Peak level 98.9 %
     Extraction speed 4.3 X
     Range quality 100.0 %
     Test CRC 1B9EFC8E
     Copy CRC 1B9EFC8E
     Copy OK
No errors occurred
AccurateRip summary
Track  1  accurately ripped (confidence 5)  [65EBCBA7]  (AR v2)
Track  2  accurately ripped (confidence 5)  [9212DB4E]  (AR v2)
Track  3  accurately ripped (confidence 5)  [E8544D33]  (AR v2)
Track  4  accurately ripped (confidence 5)  [B10011BF]  (AR v2)
Track  5  accurately ripped (confidence 5)  [093C2E80]  (AR v2)
Track  6  accurately ripped (confidence 5)  [DCDDC65D]  (AR v2)
Track  7  accurately ripped (confidence 5)  [B98970E2]  (AR v2)
Track  8  accurately ripped (confidence 5)  [57AA7B27]  (AR v2)
Track  9  accurately ripped (confidence 5)  [31AEF69A]  (AR v2)
Track 10  accurately ripped (confidence 5)  [44BFECF4]  (AR v2)
Track 11  accurately ripped (confidence 5)  [3280AB87]  (AR v2)
Track 12  accurately ripped (confidence 5)  [6D766F9B]  (AR v2)
Track 13  accurately ripped (confidence 5)  [890A5D34]  (AR v2)
Track 14  accurately ripped (confidence 5)  [1EF78785]  (AR v2)
Track 15  accurately ripped (confidence 5)  [FF767FE2]  (AR v2)
All tracks accurately ripped
End of status report
---- AcoustID Plugin V1.2.0
Total fingerprints: 15
---- CUETools DB Plugin V2.1.6
[CTDB TOCID: J9crqpMZ0C6S9gIiSX9McaH61XY-] found
Submit result: J9crqpMZ0C6S9gIiSX9McaH61XY- has been confirmed
Track | CTDB Status
  1   | (31/33) Accurately ripped
  2   | (32/33) Accurately ripped
  3   | (32/33) Accurately ripped
  4   | (32/33) Accurately ripped
  5   | (32/33) Accurately ripped
  6   | (32/33) Accurately ripped
  7   | (32/33) Accurately ripped
  8   | (32/33) Accurately ripped
  9   | (32/33) Accurately ripped
 10   | (32/33) Accurately ripped
 11   | (30/33) Accurately ripped
 12   | (31/33) Accurately ripped
 13   | (31/33) Accurately ripped
 14   | (31/33) Accurately ripped
 15   | (32/33) Accurately ripped
==== Log checksum 71DA9C0BAEC7174B255BF645DEC1284117CD66B58F093F3AEDC01ADCB7BB50FD ====
Код:
REM GENRE Hardcore
REM DATE 1997
REM DISCID C60DB90F
REM COMMENT "ExactAudioCopy v1.6"
CATALOG 0000000000000
PERFORMER "Atari Teenage Riot"
TITLE "The Future Of War"
REM COMPOSER ""
FILE "Atari Teenage Riot - The Future Of War.flac" WAVE
  TRACK 01 AUDIO
    TITLE "Get Up While You Can"
    PERFORMER "Atari Teenage Riot"
    REM COMPOSER ""
    INDEX 01 00:00:00
  TRACK 02 AUDIO
    TITLE "Fuck All!"
    PERFORMER "Atari Teenage Riot"
    REM COMPOSER ""
    INDEX 00 03:28:42
    INDEX 01 03:28:67
  TRACK 03 AUDIO
    TITLE "Sick To Death"
    PERFORMER "Atari Teenage Riot"
    REM COMPOSER ""
    INDEX 00 06:36:35
    INDEX 01 06:37:47
  TRACK 04 AUDIO
    TITLE "P.R.E.S.S."
    PERFORMER "Atari Teenage Riot"
    REM COMPOSER ""
    INDEX 00 10:17:42
    INDEX 01 10:18:17
  TRACK 05 AUDIO
    TITLE "Deutschland (Has Gotta Die!)"
    PERFORMER "Atari Teenage Riot"
    REM COMPOSER ""
    INDEX 00 14:36:15
    INDEX 01 14:37:22
  TRACK 06 AUDIO
    TITLE "Destroy 2000 Years Of Culture"
    PERFORMER "Atari Teenage Riot"
    REM COMPOSER ""
    INDEX 00 17:39:02
    INDEX 01 17:40:02
  TRACK 07 AUDIO
    TITLE "Not Your Business"
    PERFORMER "Atari Teenage Riot"
    REM COMPOSER ""
    INDEX 01 21:31:50
  TRACK 08 AUDIO
    TITLE "You Can't Hold Us Back"
    PERFORMER "Atari Teenage Riot"
    REM COMPOSER ""
    INDEX 00 24:03:17
    INDEX 01 24:04:07
  TRACK 09 AUDIO
    TITLE "Heatwave"
    PERFORMER "Atari Teenage Riot"
    REM COMPOSER ""
    INDEX 00 28:04:05
    INDEX 01 28:04:57
  TRACK 10 AUDIO
    TITLE "Redefine The Enemy"
    PERFORMER "Atari Teenage Riot"
    REM COMPOSER ""
    INDEX 00 30:47:67
    INDEX 01 30:48:22
  TRACK 11 AUDIO
    TITLE "Death Star"
    PERFORMER "Atari Teenage Riot"
    REM COMPOSER ""
    INDEX 00 34:46:60
    INDEX 01 34:47:12
  TRACK 12 AUDIO
    TITLE "The Future Of War"
    PERFORMER "Atari Teenage Riot"
    REM COMPOSER ""
    INDEX 00 40:10:26
    INDEX 01 40:10:50
  TRACK 13 AUDIO
    TITLE "She Sucks My Soul Away"
    PERFORMER "Atari Teenage Riot"
    REM COMPOSER ""
    INDEX 00 43:56:18
    INDEX 01 43:59:40
  TRACK 14 AUDIO
    TITLE "Strike"
    PERFORMER "Atari Teenage Riot"
    REM COMPOSER ""
    INDEX 00 48:29:15
    INDEX 01 48:29:47
  TRACK 15 AUDIO
    TITLE "Midijunkies (Gonna Fuck You Up) (Oscillate Mix)"
    PERFORMER "Atari Teenage Riot"
    REM COMPOSER ""
    INDEX 00 52:13:26
    INDEX 01 52:13:35

Правила, инструкции, FAQ!!!
Торрент  Добавлен [15 дек 2020, 23:00] Скачать торрент Магнет ссылка
Скачать торрент
[ Размер 20.82 КБ / Просмотров 6 ]

Статус
Проверен 
 
Размер  481.87 МБ
Приватный: Нет (DHT включён)
.torrent скачан  0
 


     Отправить личное сообщение
   
Страница 1 из 1
Показать сообщения за:  Поле сортировки  
Начать новую тему Ответить на тему


Сейчас этот форум просматривают: нет зарегистрированных пользователей и гости: 0


Вы не можете начинать темы
Вы не можете отвечать на сообщения
Вы не можете редактировать свои сообщения
Вы не можете удалять свои сообщения
Вы не можете добавлять вложения

Перейти:  
cron