Начать новую тему Ответить на тему
Статистика раздачи
Размер: 69.36 ГБ | Добавлен: 08 июл 2020, 10:12 | Скачали: 2
Сидеров: 35  [0 байт/сек]    Личеров: 11  [0 байт/сек]
Пред. тема | След. тема 

Автор
Сообщение

СообщениеДобавлено: 08 июл 2020, 10:12 

Ответить с цитатой 

Depeche Mode - Spirits In The Forest / Live Spirits
Жанр: Synthpop, Documentary
Продолжительность: 02:06:47 + 01:22:38
Год выпуска: 2020
Описание: Spirits in the Forest is a Depeche Mode documentary & live concert film by the English electronic music band Depeche Mode. Directed by award-winning filmmaker and long-time artistic collaborator Anton Corbijn. The film chronicles the final concert of the band's Global Spirit Tour at the Waldbühne in Berlin, Germany, as well as the stories of six fans of the band. The film was released to cinemas worldwide on 21 November 2019. This 2xBlu-Ray + 2xCD release featuring the full concert is set for June 26th, 2020.
Продолжительность: 02:06:47
Треклист:
1. Intro
2. Going Backwards
3. It’s No Good
4. A Pain That I’m Used To
5. Useless
6. Precious
7. World In My Eyes
8. Cover Me
9. The Things You Said
10. Insight
11. Poison Heart
12. Where’s the Revolution
13. Everything Counts
14. Stripped
15. Enjoy The Silence
16. Never Let Me Down Again
17. I Want You Now
18. Heroes
19. Walking In My Shoes
20. Personal Jesus
21. Just Can’t Get Enough
22. Pimpf
Качество: Blu-ray
Разрешение видео/развертка: 1080p
Контейнер: BDMV
Видео кодек: H.264
Аудио кодек: DTS, PCM
Видео: MPEG-4 AVC Video / 32996 kbps / 1080p / 23.976 fps / 16:9 / High Profile 4.1
Аудио#1: English / DTS-HD Master Audio / 5.1 / 96 kHz / 7600 kbps / 24-bit (DTS Core: 5.1 / 48 kHz / 1509 kbps / 24-bit)
Аудио#2: English / LPCM Audio / 2.0 / 96 kHz / 4608 kbps / 24-bit
Код:
Disc Title:     LiVE SPiRiTs DEPECHE MODE at the Waldbuhne
Disc Label:     Depeche Mode -  Live Spirits
Disc Size:      45,298,975,222 bytes
Protection:     AACS
BDInfo:         0.7.5.5
Notes:
BDINFO HOME:
  Cinema Squid (old)
    [url=http://www.cinemasquid.com/blu-ray/tools/bdinfo]http://www.cinemasquid.com/blu-ray/tools/bdinfo[/url]
  UniqProject GitHub (new)
   [url=https://github.com/UniqProject/BDInfo]https://github.com/UniqProject/BDInfo[/url]
INCLUDES FORUMS REPORT FOR:
  AVS Forum Blu-ray Audio and Video Specifications Thread
    [url=http://www.avsforum.com/avs-vb/showthread.php?t=1155731]http://www.avsforum.com/avs-vb/showthread.php?t=1155731[/url]
********************
PLAYLIST: 00001.MPLS
********************
<--- BEGIN FORUMS PASTE --->
Код:
Код:
                                                                                Total   Video
Title                                                           Codec   Length  Movie Size      Disc Size       Bitrate Bitrate Main Audio Track                          Secondary Audio Track
-----                                                           ------  ------- --------------  --------------  ------- ------- ------------------                        ---------------------
00001.MPLS                                                      AVC     2:06:46 45,244,545,024  45,298,975,222  47.58   33.00   DTS-HD Master 5.1 7600Kbps (96kHz/24-bit) LPCM 2.0 4608Kbps (96kHz/24-bit)

Код:
Код:
DISC INFO:
Disc Title:     LiVE SPiRiTs DEPECHE MODE at the Waldbuhne
Disc Label:     Depeche Mode -  Live Spirits
Disc Size:      45,298,975,222 bytes
Protection:     AACS
BDInfo:         0.7.5.5
PLAYLIST REPORT:
Name:                   00001.MPLS
Length:                 2:06:46.599 (h:m:s.ms)
Size:                   45,244,545,024 bytes
Total Bitrate:          47.58 Mbps
VIDEO:
Codec                   Bitrate             Description
-----                   -------             -----------
MPEG-4 AVC Video        32996 kbps          1080p / 23.976 fps / 16:9 / High Profile 4.1
AUDIO:
Codec                           Language        Bitrate         Description
-----                           --------        -------         -----------
DTS-HD Master Audio             English         7600 kbps       5.1 / 96 kHz /  7600 kbps / 24-bit (DTS Core: 5.1 / 48 kHz /  1509 kbps / 24-bit)
LPCM Audio                      English         4608 kbps       2.0 / 96 kHz /  4608 kbps / 24-bit
FILES:
Name            Time In         Length          Size            Total Bitrate
----            -------         ------          ----            -------------
00001.M2TS      0:00:00.000     2:06:46.599     45,244,545,024  47,585
CHAPTERS:
Number          Time In         Length          Avg Video Rate  Max 1-Sec Rate  Max 1-Sec Time  Max 5-Sec Rate  Max 5-Sec Time  Max 10Sec Rate  Max 10Sec Time  Avg Frame Size  Max Frame Size  Max Frame Time
------          -------         ------          --------------  --------------  --------------  --------------  --------------  --------------  --------------  --------------  --------------  --------------
1               0:00:00.000     0:02:27.397     33,631 kbps     38,084 kbps     00:00:59.642    34,719 kbps     00:01:42.143    34,483 kbps     00:00:50.633    175,287 bytes   474,423 bytes   00:00:04.004
2               0:02:27.397     0:06:24.425     33,949 kbps     37,198 kbps     00:05:27.535    34,827 kbps     00:06:32.975    34,558 kbps     00:06:27.929    176,993 bytes   458,990 bytes   00:03:24.245
3               0:08:51.822     0:05:18.318     34,187 kbps     38,245 kbps     00:13:55.084    34,903 kbps     00:13:51.080    34,570 kbps     00:13:46.075    178,236 bytes   431,209 bytes   00:12:07.601
4               0:14:10.140     0:04:41.906     34,156 kbps     38,806 kbps     00:14:25.865    35,167 kbps     00:14:21.861    34,630 kbps     00:14:16.856    178,075 bytes   436,421 bytes   00:14:39.503
5               0:18:52.047     0:05:45.803     34,133 kbps     37,160 kbps     00:20:06.121    34,815 kbps     00:24:27.215    34,573 kbps     00:19:57.112    177,956 bytes   391,668 bytes   00:24:34.598
6               0:24:37.851     0:05:11.769     33,738 kbps     38,928 kbps     00:25:33.323    34,857 kbps     00:25:29.236    34,577 kbps     00:24:47.277    175,896 bytes   455,516 bytes   00:24:57.120
7               0:29:49.621     0:05:43.968     32,987 kbps     44,145 kbps     00:34:47.210    35,398 kbps     00:35:06.813    34,584 kbps     00:29:51.706    171,978 bytes   429,328 bytes   00:35:23.996
8               0:35:33.589     0:05:31.205     33,414 kbps     41,517 kbps     00:37:34.085    35,430 kbps     00:37:30.122    34,898 kbps     00:37:25.117    174,204 bytes   475,524 bytes   00:37:28.037
9               0:41:04.795     0:04:03.701     32,342 kbps     38,138 kbps     00:43:05.624    34,768 kbps     00:44:48.977    34,461 kbps     00:44:44.098    168,615 bytes   457,940 bytes   00:42:17.826
10              0:45:08.497     0:06:29.931     29,139 kbps     36,019 kbps     00:50:41.747    34,627 kbps     00:50:57.054    34,363 kbps     00:50:50.088    151,920 bytes   408,355 bytes   00:45:09.498
11              0:51:38.428     0:03:30.168     33,793 kbps     37,512 kbps     00:52:58.425    34,922 kbps     00:52:54.296    34,603 kbps     00:52:49.332    176,183 bytes   420,523 bytes   00:52:59.176
12              0:55:08.596     0:05:05.513     31,633 kbps     38,395 kbps     00:59:35.405    34,773 kbps     00:56:42.690    34,401 kbps     00:55:20.483    164,918 bytes   456,123 bytes   00:59:36.072
13              1:00:14.110     0:08:28.007     33,291 kbps     45,296 kbps     01:02:55.271    35,711 kbps     01:02:42.508    35,079 kbps     01:02:37.503    173,563 bytes   485,953 bytes   01:03:13.956
14              1:08:42.118     0:05:17.817     32,231 kbps     39,876 kbps     01:13:42.334    35,221 kbps     01:13:38.330    34,474 kbps     01:11:53.058    168,036 bytes   451,983 bytes   01:12:48.697
15              1:13:59.935     0:07:43.671     32,666 kbps     45,366 kbps     01:18:37.087    36,548 kbps     01:18:33.083    35,171 kbps     01:18:28.078    170,307 bytes   489,492 bytes   01:16:09.398
16              1:21:43.607     0:06:37.688     33,814 kbps     41,076 kbps     01:27:33.748    35,626 kbps     01:27:29.744    34,904 kbps     01:27:24.739    176,289 bytes   634,440 bytes   01:22:00.916
17              1:28:21.296     0:04:44.283     32,745 kbps     36,532 kbps     01:32:27.458    34,750 kbps     01:32:23.454    34,453 kbps     01:32:23.162    170,717 bytes   493,156 bytes   01:29:00.835
18              1:33:05.580     0:06:49.033     33,590 kbps     37,562 kbps     01:35:25.720    34,965 kbps     01:35:21.674    34,573 kbps     01:37:30.970    175,124 bytes   354,072 bytes   01:39:42.434
19              1:39:54.613     0:08:57.995     33,451 kbps     44,253 kbps     01:47:03.708    35,400 kbps     01:45:14.933    34,791 kbps     01:45:09.928    174,397 bytes   636,312 bytes   01:47:04.418
20              1:48:52.609     0:07:01.337     33,523 kbps     43,242 kbps     01:51:26.429    35,829 kbps     01:51:22.425    35,116 kbps     01:51:17.420    174,775 bytes   444,699 bytes   01:49:13.296
21              1:55:53.947     0:08:27.006     33,822 kbps     38,122 kbps     02:01:19.063    35,141 kbps     02:04:14.405    34,683 kbps     02:04:09.442    176,333 bytes   459,349 bytes   02:04:19.034
22              2:04:20.953     0:02:25.645     25,106 kbps     31,988 kbps     02:06:44.555    26,893 kbps     02:04:22.663    26,332 kbps     02:04:23.205    130,927 bytes   415,485 bytes   02:06:22.074
STREAM DIAGNOSTICS:
File            PID             Type            Codec           Language                Seconds                 Bitrate                 Bytes           Packets
----            ---             ----            -----           --------                --------------          --------------          -------------   -----
00001.M2TS      4113 (0x1011)   0x1B            AVC                                     7606.516                32,996                  31,373,530,747  170,617,053
00001.M2TS      4352 (0x1100)   0x86            DTS-HD MA       eng (English)           7606.516                7,600                   7,225,894,960   40,435,780
00001.M2TS      4353 (0x1101)   0x80            LPCM            eng (English)           7606.516                4,614                   4,387,463,808   24,340,992

Код:
<---- END FORUMS PASTE ---->
QUICK SUMMARY:
Disc Title: LiVE SPiRiTs DEPECHE MODE at the Waldbuhne
Disc Label: Depeche Mode -  Live Spirits
Disc Size: 45,298,975,222 bytes
Protection: AACS
Playlist: 00001.MPLS
Size: 45,244,545,024 bytes
Length: 2:06:46.599
Total Bitrate: 47.58 Mbps
Video: MPEG-4 AVC Video / 32996 kbps / 1080p / 23.976 fps / 16:9 / High Profile 4.1
Audio: English / DTS-HD Master Audio / 5.1 / 96 kHz /  7600 kbps / 24-bit (DTS Core: 5.1 / 48 kHz /  1509 kbps / 24-bit)
Audio: English / LPCM Audio / 2.0 / 96 kHz /  4608 kbps / 24-bit
********************
PLAYLIST: 00026.MPLS
********************
<--- BEGIN FORUMS PASTE --->
Код:
Код:
                                                                                Total   Video
Title                                                           Codec   Length  Movie Size      Disc Size       Bitrate Bitrate Main Audio Track                          Secondary Audio Track
-----                                                           ------  ------- --------------  --------------  ------- ------- ------------------                        ---------------------
00026.MPLS                                                      AVC     2:06:46 45,244,545,024  45,298,975,222  47.58   33.00   DTS-HD Master 5.1 7600Kbps (96kHz/24-bit) LPCM 2.0 4608Kbps (96kHz/24-bit)

Код:
Код:
DISC INFO:
Disc Title:     LiVE SPiRiTs DEPECHE MODE at the Waldbuhne
Disc Label:     Depeche Mode -  Live Spirits
Disc Size:      45,298,975,222 bytes
Protection:     AACS
BDInfo:         0.7.5.5
PLAYLIST REPORT:
Name:                   00026.MPLS
Length:                 2:06:46.599 (h:m:s.ms)
Size:                   45,244,545,024 bytes
Total Bitrate:          47.58 Mbps
VIDEO:
Codec                   Bitrate             Description
-----                   -------             -----------
MPEG-4 AVC Video        32996 kbps          1080p / 23.976 fps / 16:9 / High Profile 4.1
AUDIO:
Codec                           Language        Bitrate         Description
-----                           --------        -------         -----------
DTS-HD Master Audio             English         7600 kbps       5.1 / 96 kHz /  7600 kbps / 24-bit (DTS Core: 5.1 / 48 kHz /  1509 kbps / 24-bit)
LPCM Audio                      English         4608 kbps       2.0 / 96 kHz /  4608 kbps / 24-bit
FILES:
Name            Time In         Length          Size            Total Bitrate
----            -------         ------          ----            -------------
00001.M2TS      0:00:00.000     2:06:46.599     45,244,545,024  47,585
CHAPTERS:
Number          Time In         Length          Avg Video Rate  Max 1-Sec Rate  Max 1-Sec Time  Max 5-Sec Rate  Max 5-Sec Time  Max 10Sec Rate  Max 10Sec Time  Avg Frame Size  Max Frame Size  Max Frame Time
------          -------         ------          --------------  --------------  --------------  --------------  --------------  --------------  --------------  --------------  --------------  --------------
1               0:00:00.000     0:02:27.397     33,631 kbps     38,084 kbps     00:00:59.642    34,719 kbps     00:01:42.143    34,483 kbps     00:00:50.633    175,287 bytes   474,423 bytes   00:00:04.004
2               0:02:27.397     0:06:24.425     33,949 kbps     37,198 kbps     00:05:27.535    34,827 kbps     00:06:32.975    34,558 kbps     00:06:27.929    176,993 bytes   458,990 bytes   00:03:24.245
3               0:08:51.822     0:05:18.318     34,187 kbps     38,245 kbps     00:13:55.084    34,903 kbps     00:13:51.080    34,570 kbps     00:13:46.075    178,236 bytes   431,209 bytes   00:12:07.601
4               0:14:10.140     0:04:41.906     34,156 kbps     38,806 kbps     00:14:25.865    35,167 kbps     00:14:21.861    34,630 kbps     00:14:16.856    178,075 bytes   436,421 bytes   00:14:39.503
5               0:18:52.047     0:05:45.803     34,133 kbps     37,160 kbps     00:20:06.121    34,815 kbps     00:24:27.215    34,573 kbps     00:19:57.112    177,956 bytes   391,668 bytes   00:24:34.598
6               0:24:37.851     0:05:11.769     33,738 kbps     38,928 kbps     00:25:33.323    34,857 kbps     00:25:29.236    34,577 kbps     00:24:47.277    175,896 bytes   455,516 bytes   00:24:57.120
7               0:29:49.621     0:05:43.968     32,987 kbps     44,145 kbps     00:34:47.210    35,398 kbps     00:35:06.813    34,584 kbps     00:29:51.706    171,978 bytes   429,328 bytes   00:35:23.996
8               0:35:33.589     0:05:31.205     33,414 kbps     41,517 kbps     00:37:34.085    35,430 kbps     00:37:30.122    34,898 kbps     00:37:25.117    174,204 bytes   475,524 bytes   00:37:28.037
9               0:41:04.795     0:04:03.701     32,342 kbps     38,138 kbps     00:43:05.624    34,768 kbps     00:44:48.977    34,461 kbps     00:44:44.098    168,615 bytes   457,940 bytes   00:42:17.826
10              0:45:08.497     0:06:29.931     29,139 kbps     36,019 kbps     00:50:41.747    34,627 kbps     00:50:57.054    34,363 kbps     00:50:50.088    151,920 bytes   408,355 bytes   00:45:09.498
11              0:51:38.428     0:03:30.168     33,793 kbps     37,512 kbps     00:52:58.425    34,922 kbps     00:52:54.296    34,603 kbps     00:52:49.332    176,183 bytes   420,523 bytes   00:52:59.176
12              0:55:08.596     0:05:05.513     31,633 kbps     38,395 kbps     00:59:35.405    34,773 kbps     00:56:42.690    34,401 kbps     00:55:20.483    164,918 bytes   456,123 bytes   00:59:36.072
13              1:00:14.110     0:08:28.007     33,291 kbps     45,296 kbps     01:02:55.271    35,711 kbps     01:02:42.508    35,079 kbps     01:02:37.503    173,563 bytes   485,953 bytes   01:03:13.956
14              1:08:42.118     0:05:17.817     32,231 kbps     39,876 kbps     01:13:42.334    35,221 kbps     01:13:38.330    34,474 kbps     01:11:53.058    168,036 bytes   451,983 bytes   01:12:48.697
15              1:13:59.935     0:07:43.671     32,666 kbps     45,366 kbps     01:18:37.087    36,548 kbps     01:18:33.083    35,171 kbps     01:18:28.078    170,307 bytes   489,492 bytes   01:16:09.398
16              1:21:43.607     0:06:37.688     33,814 kbps     41,076 kbps     01:27:33.748    35,626 kbps     01:27:29.744    34,904 kbps     01:27:24.739    176,289 bytes   634,440 bytes   01:22:00.916
17              1:28:21.296     0:04:44.283     32,745 kbps     36,532 kbps     01:32:27.458    34,750 kbps     01:32:23.454    34,453 kbps     01:32:23.162    170,717 bytes   493,156 bytes   01:29:00.835
18              1:33:05.580     0:06:49.033     33,590 kbps     37,562 kbps     01:35:25.720    34,965 kbps     01:35:21.674    34,573 kbps     01:37:30.970    175,124 bytes   354,072 bytes   01:39:42.434
19              1:39:54.613     0:08:57.995     33,451 kbps     44,253 kbps     01:47:03.708    35,400 kbps     01:45:14.933    34,791 kbps     01:45:09.928    174,397 bytes   636,312 bytes   01:47:04.418
20              1:48:52.609     0:07:01.337     33,523 kbps     43,242 kbps     01:51:26.429    35,829 kbps     01:51:22.425    35,116 kbps     01:51:17.420    174,775 bytes   444,699 bytes   01:49:13.296
21              1:55:53.947     0:08:27.006     33,822 kbps     38,122 kbps     02:01:19.063    35,141 kbps     02:04:14.405    34,683 kbps     02:04:09.442    176,333 bytes   459,349 bytes   02:04:19.034
22              2:04:20.953     0:02:25.645     25,106 kbps     31,988 kbps     02:06:44.555    26,893 kbps     02:04:22.663    26,332 kbps     02:04:23.205    130,927 bytes   415,485 bytes   02:06:22.074
STREAM DIAGNOSTICS:
File            PID             Type            Codec           Language                Seconds                 Bitrate                 Bytes           Packets
----            ---             ----            -----           --------                --------------          --------------          -------------   -----
00001.M2TS      4113 (0x1011)   0x1B            AVC                                     7606.516                32,996                  31,373,530,747  170,617,053
00001.M2TS      4352 (0x1100)   0x86            DTS-HD MA       eng (English)           7606.516                7,600                   7,225,894,960   40,435,780
00001.M2TS      4353 (0x1101)   0x80            LPCM            eng (English)           7606.516                4,614                   4,387,463,808   24,340,992

Код:
<---- END FORUMS PASTE ---->
QUICK SUMMARY:
Disc Title: LiVE SPiRiTs DEPECHE MODE at the Waldbuhne
Disc Label: Depeche Mode -  Live Spirits
Disc Size: 45,298,975,222 bytes
Protection: AACS
Playlist: 00026.MPLS
Size: 45,244,545,024 bytes
Length: 2:06:46.599
Total Bitrate: 47.58 Mbps
Video: MPEG-4 AVC Video / 32996 kbps / 1080p / 23.976 fps / 16:9 / High Profile 4.1
Audio: English / DTS-HD Master Audio / 5.1 / 96 kHz /  7600 kbps / 24-bit (DTS Core: 5.1 / 48 kHz /  1509 kbps / 24-bit)
Audio: English / LPCM Audio / 2.0 / 96 kHz /  4608 kbps / 24-bit
Продолжительность: 01:22:38
Треклист:
Spirits in the Forest documentary
Качество: Blu-ray
Разрешение видео/развертка: 1080p
Контейнер: BDMV
Видео кодек: H.264
Аудио кодек: DTS, PCM
Видео: MPEG-4 AVC Video / 32984 kbps / 1080p / 23,976 fps / 16:9 / High Profile 4.1
Аудио#1: English / DTS-HD Master Audio / 5.1 / 96 kHz / 6781 kbps / 24-bit (DTS Core: 5.1 / 48 kHz / 1509 kbps / 24-bit)
Аудио#2: English / LPCM Audio / 2.0 / 96 kHz / 4608 kbps / 24-bit
Субтитры: English, English SDH, French, German, Italian, Spanish, Dutch, Spanish SDH, Portuguese, Polish
Код:
Disc Title:     Depeche Mode - Spirits in the Forest
Disc Size:      29 177 883 122 bytes
Protection:     AACS
BD-Java:        No
BDInfo:         0.7.1
Notes:
BDINFO HOME:
  Cinema Squid
    [url=http://www.cinemasquid.com/blu-ray/tools/bdinfo]http://www.cinemasquid.com/blu-ray/tools/bdinfo[/url]
INCLUDES FORUMS REPORT FOR:
  AVS Forum Blu-ray Audio and Video Specifications Thread
    [url=http://www.avsforum.com/avs-vb/showthread.php?t=1155731]http://www.avsforum.com/avs-vb/showthread.php?t=1155731[/url]
********************
PLAYLIST: 00000.MPLS
********************
<--- BEGIN FORUMS PASTE --->
Код:
Код:
                                                                                Total   Video
Title                                                           Codec   Length  Movie Size      Disc Size       Bitrate Bitrate Main Audio Track                          Secondary Audio Track
-----                                                           ------  ------- --------------  --------------  ------- ------- ------------------                        ---------------------
00000.MPLS                                                      AVC     1:22:37 29 124 968 448  29 177 883 122  47,00   32,98   DTS-HD Master 5.1 6781Kbps (96kHz/24-bit) LPCM 2.0 4608Kbps (96kHz/24-bit)

Код:
Код:
DISC INFO:
Disc Title:     Depeche Mode - Spirits in the Forest
Disc Size:      29 177 883 122 bytes
Protection:     AACS
BD-Java:        No
BDInfo:         0.7.1
PLAYLIST REPORT:
Name:                   00000.MPLS
Length:                 1:22:37.953 (h:m:s.ms)
Size:                   29 124 968 448 bytes
Total Bitrate:          47,00 Mbps
VIDEO:
Codec                   Bitrate             Description
-----                   -------             -----------
MPEG-4 AVC Video        32984 kbps          1080p / 23,976 fps / 16:9 / High Profile 4.1
AUDIO:
Codec                           Language        Bitrate         Description
-----                           --------        -------         -----------
DTS-HD Master Audio             English         6781 kbps       5.1 / 96 kHz / 6781 kbps / 24-bit (DTS Core: 5.1 / 48 kHz / 1509 kbps / 24-bit)
LPCM Audio                      English         4608 kbps       2.0 / 96 kHz / 4608 kbps / 24-bit
SUBTITLES:
Codec                           Language        Bitrate         Description
-----                           --------        -------         -----------
Presentation Graphics           English         38,374 kbps
Presentation Graphics           French          24,685 kbps
Presentation Graphics           German          25,800 kbps
Presentation Graphics           Italian         26,121 kbps
Presentation Graphics           Spanish         33,229 kbps
Presentation Graphics           Dutch           24,569 kbps
Presentation Graphics           Spanish         24,249 kbps
Presentation Graphics           Portuguese      25,657 kbps
Presentation Graphics           Polish          24,375 kbps
Presentation Graphics           English         1,258 kbps
FILES:
Name            Time In         Length          Size            Total Bitrate
----            -------         ------          ----            -------------
00000.M2TS      0:00:00.000     1:22:37.953     29 124 968 448  46 995
CHAPTERS:
Number          Time In         Length          Avg Video Rate  Max 1-Sec Rate  Max 1-Sec Time  Max 5-Sec Rate  Max 5-Sec Time  Max 10Sec Rate  Max 10Sec Time  Avg Frame Size  Max Frame Size  Max Frame Time
------          -------         ------          --------------  --------------  --------------  --------------  --------------  --------------  --------------  --------------  --------------  --------------
1               0:00:00.000     0:03:26.915     31 890 kbps     38 947 kbps     00:02:16.427    34 626 kbps     00:03:19.240    34 431 kbps     00:02:16.136    166 228 bytes   366 429 bytes   00:01:10.945
2               0:03:26.915     0:02:41.202     33 989 kbps     37 454 kbps     00:04:29.644    34 849 kbps     00:04:25.807    34 530 kbps     00:05:47.555    177 201 bytes   347 713 bytes   00:05:39.505
3               0:06:08.117     0:01:34.344     30 267 kbps     36 888 kbps     00:06:39.440    34 806 kbps     00:07:15.435    34 420 kbps     00:07:09.387    157 800 bytes   495 680 bytes   00:06:40.983
4               0:07:42.462     0:03:17.155     33 537 kbps     38 223 kbps     00:09:36.659    35 012 kbps     00:09:32.655    34 538 kbps     00:09:47.128    174 847 bytes   400 220 bytes   00:10:55.363
5               0:10:59.617     0:01:19.370     34 091 kbps     39 025 kbps     00:11:07.792    35 326 kbps     00:11:05.873    34 757 kbps     00:11:01.535    177 733 bytes   374 647 bytes   00:11:06.290
6               0:12:18.988     0:01:45.814     32 881 kbps     37 473 kbps     00:12:24.285    34 854 kbps     00:13:32.019    34 483 kbps     00:13:26.972    171 427 bytes   437 412 bytes   00:12:36.297
7               0:14:04.802     0:01:09.152     34 213 kbps     36 340 kbps     00:15:02.902    34 647 kbps     00:14:58.898    34 492 kbps     00:15:02.568    178 373 bytes   421 106 bytes   00:14:18.274
8               0:15:13.954     0:03:14.777     34 064 kbps     37 771 kbps     00:15:24.214    34 903 kbps     00:15:18.375    34 506 kbps     00:15:20.878    177 594 bytes   447 706 bytes   00:15:43.525
9               0:18:28.732     0:02:13.550     34 121 kbps     40 626 kbps     00:19:49.771    35 483 kbps     00:19:45.767    34 742 kbps     00:19:58.280    177 891 bytes   422 576 bytes   00:20:01.241
10              0:20:42.282     0:01:52.487     34 146 kbps     37 979 kbps     00:21:21.321    34 885 kbps     00:21:10.018    34 494 kbps     00:21:41.174    178 024 bytes   459 214 bytes   00:21:52.853
11              0:22:34.770     0:02:15.510     33 183 kbps     39 346 kbps     00:23:51.847    35 084 kbps     00:23:49.886    34 598 kbps     00:23:32.411    173 002 bytes   451 163 bytes   00:24:46.026
12              0:24:50.280     0:03:10.773     32 739 kbps     37 259 kbps     00:25:05.045    34 893 kbps     00:25:00.957    34 517 kbps     00:24:55.952    170 685 bytes   356 699 bytes   00:27:54.172
13              0:28:01.054     0:00:40.665     34 153 kbps     37 118 kbps     00:28:21.741    34 820 kbps     00:28:17.779    34 535 kbps     00:28:12.732    178 058 bytes   308 391 bytes   00:28:08.853
14              0:28:41.720     0:01:01.728     33 586 kbps     37 449 kbps     00:29:03.658    34 852 kbps     00:29:15.962    34 526 kbps     00:28:54.524    175 102 bytes   355 077 bytes   00:29:17.380
15              0:29:43.448     0:04:58.631     32 453 kbps     38 514 kbps     00:33:17.829    34 713 kbps     00:32:38.581    34 411 kbps     00:29:51.873    169 195 bytes   494 495 bytes   00:33:18.496
16              0:34:42.080     0:01:57.867     29 931 kbps     36 538 kbps     00:35:37.635    34 617 kbps     00:35:33.631    34 376 kbps     00:35:58.906    156 045 bytes   336 099 bytes   00:34:43.247
17              0:36:39.947     0:01:59.285     33 517 kbps     37 432 kbps     00:38:33.769    34 840 kbps     00:38:29.724    34 543 kbps     00:38:24.802    174 742 bytes   334 396 bytes   00:36:44.202
18              0:38:39.233     0:07:36.539     33 905 kbps     42 913 kbps     00:45:22.594    35 307 kbps     00:44:12.358    34 635 kbps     00:43:28.772    176 765 bytes   506 479 bytes   00:45:23.303
19              0:46:15.773     0:00:19.519     31 460 kbps     35 508 kbps     00:46:32.331    34 434 kbps     00:46:16.273    31 617 kbps     00:46:15.773    164 020 bytes   297 121 bytes   00:46:19.193
20              0:46:35.292     0:02:49.377     34 046 kbps     39 052 kbps     00:48:19.146    35 215 kbps     00:48:15.142    34 714 kbps     00:48:34.786    177 501 bytes   379 592 bytes   00:49:07.736
21              0:49:24.670     0:04:40.571     33 550 kbps     40 159 kbps     00:53:48.308    35 447 kbps     00:53:44.262    34 839 kbps     00:53:39.299    174 916 bytes   638 557 bytes   00:49:40.435
22              0:54:05.242     0:02:43.162     33 557 kbps     36 028 kbps     00:55:06.886    34 661 kbps     00:56:04.069    34 443 kbps     00:54:57.877    174 951 bytes   334 758 bytes   00:56:48.404
23              0:56:48.404     0:07:51.179     33 188 kbps     46 232 kbps     01:04:07.385    36 674 kbps     01:04:03.381    34 817 kbps     01:03:58.376    173 026 bytes   527 918 bytes   01:00:16.904
24              1:04:39.584     0:01:24.876     32 701 kbps     36 744 kbps     01:05:30.092    34 466 kbps     01:05:03.524    34 247 kbps     01:05:01.355    170 488 bytes   326 761 bytes   01:04:44.505
25              1:06:04.460     0:06:00.610     33 702 kbps     42 149 kbps     01:08:35.402    35 707 kbps     01:08:31.398    34 975 kbps     01:08:26.393    175 706 bytes   452 370 bytes   01:10:22.343
26              1:12:05.070     0:01:12.030     31 078 kbps     36 988 kbps     01:12:58.582    34 322 kbps     01:13:05.506    34 012 kbps     01:12:58.499    162 026 bytes   291 922 bytes   01:13:05.839
27              1:13:17.101     0:05:42.175     33 906 kbps     38 113 kbps     01:14:43.395    34 896 kbps     01:14:39.391    34 613 kbps     01:14:34.386    176 771 bytes   420 436 bytes   01:16:18.407
28              1:18:59.276     0:03:38.676     26 656 kbps     37 942 kbps     01:19:12.622    35 052 kbps     01:19:08.618    33 509 kbps     01:19:15.834    138 999 bytes   635 239 bytes   01:19:59.711
STREAM DIAGNOSTICS:
File            PID             Type            Codec           Language                Seconds                 Bitrate                 Bytes           Packets
----            ---             ----            -----           --------                --------------          --------------          -------------   -----
00000.M2TS      4113 (0x1011)   0x1B            AVC                                     4957,870                32 985                  20 441 849 252  111 166 872
00000.M2TS      4352 (0x1100)   0x86            DTS-HD MA       eng (English)           4957,870                6 781                   4 202 380 488   23 616 021
00000.M2TS      4353 (0x1101)   0x80            LPCM            eng (English)           4957,870                4 614                   2 859 748 444   15 865 456
00000.M2TS      4608 (0x1200)   0x90            PGS             eng (English)           4957,870                38                      23 782 049      135 720
00000.M2TS      4609 (0x1201)   0x90            PGS             fra (French)            4957,870                25                      15 298 617      87 186
00000.M2TS      4610 (0x1202)   0x90            PGS             deu (German)            4957,870                26                      15 989 228      91 050
00000.M2TS      4611 (0x1203)   0x90            PGS             ita (Italian)           4957,870                26                      16 188 102      92 127
00000.M2TS      4612 (0x1204)   0x90            PGS             spa (Spanish)           4957,870                33                      20 593 431      118 064
00000.M2TS      4613 (0x1205)   0x90            PGS             nld (Dutch)             4957,870                25                      15 226 385      86 911
00000.M2TS      4614 (0x1206)   0x90            PGS             spa (Spanish)           4957,870                24                      15 028 479      85 728
00000.M2TS      4615 (0x1207)   0x90            PGS             por (Portuguese)        4957,870                26                      15 900 474      90 563
00000.M2TS      4616 (0x1208)   0x90            PGS             pol (Polish)            4957,870                24                      15 106 108      86 220
00000.M2TS      4617 (0x1209)   0x90            PGS             eng (English)           4957,870                1                       779 838         4 493

Код:
<---- END FORUMS PASTE ---->
QUICK SUMMARY:
Disc Title: Depeche Mode - Spirits in the Forest
Disc Size: 29 177 883 122 bytes
Protection: AACS
BD-Java: No
Playlist: 00000.MPLS
Size: 29 124 968 448 bytes
Length: 1:22:37.953
Total Bitrate: 47,00 Mbps
Video: MPEG-4 AVC Video / 32984 kbps / 1080p / 23,976 fps / 16:9 / High Profile 4.1
Audio: English / DTS-HD Master Audio / 5.1 / 96 kHz / 6781 kbps / 24-bit (DTS Core: 5.1 / 48 kHz / 1509 kbps / 24-bit)
Audio: English / LPCM Audio / 2.0 / 96 kHz / 4608 kbps / 24-bit
Subtitle: English / 38,374 kbps
Subtitle: French / 24,685 kbps
Subtitle: German / 25,800 kbps
Subtitle: Italian / 26,121 kbps
Subtitle: Spanish / 33,229 kbps
Subtitle: Dutch / 24,569 kbps
Subtitle: Spanish / 24,249 kbps
Subtitle: Portuguese / 25,657 kbps
Subtitle: Polish / 24,375 kbps
Subtitle: English / 1,258 kbps
********************
PLAYLIST: 00026.MPLS
********************
<--- BEGIN FORUMS PASTE --->
Код:
Код:
                                                                                Total   Video
Title                                                           Codec   Length  Movie Size      Disc Size       Bitrate Bitrate Main Audio Track                          Secondary Audio Track
-----                                                           ------  ------- --------------  --------------  ------- ------- ------------------                        ---------------------
00026.MPLS                                                      AVC     1:22:37 29 124 968 448  29 177 883 122  47,00   32,98   DTS-HD Master 5.1 6781Kbps (96kHz/24-bit) LPCM 2.0 4608Kbps (96kHz/24-bit)

Код:
Код:
DISC INFO:
Disc Title:     Depeche Mode - Spirits in the Forest
Disc Size:      29 177 883 122 bytes
Protection:     AACS
BD-Java:        No
BDInfo:         0.7.1
PLAYLIST REPORT:
Name:                   00026.MPLS
Length:                 1:22:37.953 (h:m:s.ms)
Size:                   29 124 968 448 bytes
Total Bitrate:          47,00 Mbps
VIDEO:
Codec                   Bitrate             Description
-----                   -------             -----------
MPEG-4 AVC Video        32984 kbps          1080p / 23,976 fps / 16:9 / High Profile 4.1
AUDIO:
Codec                           Language        Bitrate         Description
-----                           --------        -------         -----------
DTS-HD Master Audio             English         6781 kbps       5.1 / 96 kHz / 6781 kbps / 24-bit (DTS Core: 5.1 / 48 kHz / 1509 kbps / 24-bit)
LPCM Audio                      English         4608 kbps       2.0 / 96 kHz / 4608 kbps / 24-bit
SUBTITLES:
Codec                           Language        Bitrate         Description
-----                           --------        -------         -----------
Presentation Graphics           English         38,374 kbps
Presentation Graphics           French          24,685 kbps
Presentation Graphics           German          25,800 kbps
Presentation Graphics           Italian         26,121 kbps
Presentation Graphics           Spanish         33,229 kbps
Presentation Graphics           Dutch           24,569 kbps
Presentation Graphics           Spanish         24,249 kbps
Presentation Graphics           Portuguese      25,657 kbps
Presentation Graphics           Polish          24,375 kbps
Presentation Graphics           English         1,258 kbps
FILES:
Name            Time In         Length          Size            Total Bitrate
----            -------         ------          ----            -------------
00000.M2TS      0:00:00.000     1:22:37.953     29 124 968 448  46 995
CHAPTERS:
Number          Time In         Length          Avg Video Rate  Max 1-Sec Rate  Max 1-Sec Time  Max 5-Sec Rate  Max 5-Sec Time  Max 10Sec Rate  Max 10Sec Time  Avg Frame Size  Max Frame Size  Max Frame Time
------          -------         ------          --------------  --------------  --------------  --------------  --------------  --------------  --------------  --------------  --------------  --------------
1               0:00:00.000     0:03:26.915     31 890 kbps     38 947 kbps     00:02:16.427    34 626 kbps     00:03:19.240    34 431 kbps     00:02:16.136    166 228 bytes   366 429 bytes   00:01:10.945
2               0:03:26.915     0:02:41.202     33 989 kbps     37 454 kbps     00:04:29.644    34 849 kbps     00:04:25.807    34 530 kbps     00:05:47.555    177 201 bytes   347 713 bytes   00:05:39.505
3               0:06:08.117     0:01:34.344     30 267 kbps     36 888 kbps     00:06:39.440    34 806 kbps     00:07:15.435    34 420 kbps     00:07:09.387    157 800 bytes   495 680 bytes   00:06:40.983
4               0:07:42.462     0:03:17.155     33 537 kbps     38 223 kbps     00:09:36.659    35 012 kbps     00:09:32.655    34 538 kbps     00:09:47.128    174 847 bytes   400 220 bytes   00:10:55.363
5               0:10:59.617     0:01:19.370     34 091 kbps     39 025 kbps     00:11:07.792    35 326 kbps     00:11:05.873    34 757 kbps     00:11:01.535    177 733 bytes   374 647 bytes   00:11:06.290
6               0:12:18.988     0:01:45.814     32 881 kbps     37 473 kbps     00:12:24.285    34 854 kbps     00:13:32.019    34 483 kbps     00:13:26.972    171 427 bytes   437 412 bytes   00:12:36.297
7               0:14:04.802     0:01:09.152     34 213 kbps     36 340 kbps     00:15:02.902    34 647 kbps     00:14:58.898    34 492 kbps     00:15:02.568    178 373 bytes   421 106 bytes   00:14:18.274
8               0:15:13.954     0:03:14.777     34 064 kbps     37 771 kbps     00:15:24.214    34 903 kbps     00:15:18.375    34 506 kbps     00:15:20.878    177 594 bytes   447 706 bytes   00:15:43.525
9               0:18:28.732     0:02:13.550     34 121 kbps     40 626 kbps     00:19:49.771    35 483 kbps     00:19:45.767    34 742 kbps     00:19:58.280    177 891 bytes   422 576 bytes   00:20:01.241
10              0:20:42.282     0:01:52.487     34 146 kbps     37 979 kbps     00:21:21.321    34 885 kbps     00:21:10.018    34 494 kbps     00:21:41.174    178 024 bytes   459 214 bytes   00:21:52.853
11              0:22:34.770     0:02:15.510     33 183 kbps     39 346 kbps     00:23:51.847    35 084 kbps     00:23:49.886    34 598 kbps     00:23:32.411    173 002 bytes   451 163 bytes   00:24:46.026
12              0:24:50.280     0:03:10.773     32 739 kbps     37 259 kbps     00:25:05.045    34 893 kbps     00:25:00.957    34 517 kbps     00:24:55.952    170 685 bytes   356 699 bytes   00:27:54.172
13              0:28:01.054     0:00:40.665     34 153 kbps     37 118 kbps     00:28:21.741    34 820 kbps     00:28:17.779    34 535 kbps     00:28:12.732    178 058 bytes   308 391 bytes   00:28:08.853
14              0:28:41.720     0:01:01.728     33 586 kbps     37 449 kbps     00:29:03.658    34 852 kbps     00:29:15.962    34 526 kbps     00:28:54.524    175 102 bytes   355 077 bytes   00:29:17.380
15              0:29:43.448     0:04:58.631     32 453 kbps     38 514 kbps     00:33:17.829    34 713 kbps     00:32:38.581    34 411 kbps     00:29:51.873    169 195 bytes   494 495 bytes   00:33:18.496
16              0:34:42.080     0:01:57.867     29 931 kbps     36 538 kbps     00:35:37.635    34 617 kbps     00:35:33.631    34 376 kbps     00:35:58.906    156 045 bytes   336 099 bytes   00:34:43.247
17              0:36:39.947     0:01:59.285     33 517 kbps     37 432 kbps     00:38:33.769    34 840 kbps     00:38:29.724    34 543 kbps     00:38:24.802    174 742 bytes   334 396 bytes   00:36:44.202
18              0:38:39.233     0:07:36.539     33 905 kbps     42 913 kbps     00:45:22.594    35 307 kbps     00:44:12.358    34 635 kbps     00:43:28.772    176 765 bytes   506 479 bytes   00:45:23.303
19              0:46:15.773     0:00:19.519     31 460 kbps     35 508 kbps     00:46:32.331    34 434 kbps     00:46:16.273    31 617 kbps     00:46:15.773    164 020 bytes   297 121 bytes   00:46:19.193
20              0:46:35.292     0:02:49.377     34 046 kbps     39 052 kbps     00:48:19.146    35 215 kbps     00:48:15.142    34 714 kbps     00:48:34.786    177 501 bytes   379 592 bytes   00:49:07.736
21              0:49:24.670     0:04:40.571     33 550 kbps     40 159 kbps     00:53:48.308    35 447 kbps     00:53:44.262    34 839 kbps     00:53:39.299    174 916 bytes   638 557 bytes   00:49:40.435
22              0:54:05.242     0:02:43.162     33 557 kbps     36 028 kbps     00:55:06.886    34 661 kbps     00:56:04.069    34 443 kbps     00:54:57.877    174 951 bytes   334 758 bytes   00:56:48.404
23              0:56:48.404     0:07:51.179     33 188 kbps     46 232 kbps     01:04:07.385    36 674 kbps     01:04:03.381    34 817 kbps     01:03:58.376    173 026 bytes   527 918 bytes   01:00:16.904
24              1:04:39.584     0:01:24.876     32 701 kbps     36 744 kbps     01:05:30.092    34 466 kbps     01:05:03.524    34 247 kbps     01:05:01.355    170 488 bytes   326 761 bytes   01:04:44.505
25              1:06:04.460     0:06:00.610     33 702 kbps     42 149 kbps     01:08:35.402    35 707 kbps     01:08:31.398    34 975 kbps     01:08:26.393    175 706 bytes   452 370 bytes   01:10:22.343
26              1:12:05.070     0:01:12.030     31 078 kbps     36 988 kbps     01:12:58.582    34 322 kbps     01:13:05.506    34 012 kbps     01:12:58.499    162 026 bytes   291 922 bytes   01:13:05.839
27              1:13:17.101     0:05:42.175     33 906 kbps     38 113 kbps     01:14:43.395    34 896 kbps     01:14:39.391    34 613 kbps     01:14:34.386    176 771 bytes   420 436 bytes   01:16:18.407
28              1:18:59.276     0:03:38.676     26 656 kbps     37 942 kbps     01:19:12.622    35 052 kbps     01:19:08.618    33 509 kbps     01:19:15.834    138 999 bytes   635 239 bytes   01:19:59.711
STREAM DIAGNOSTICS:
File            PID             Type            Codec           Language                Seconds                 Bitrate                 Bytes           Packets
----            ---             ----            -----           --------                --------------          --------------          -------------   -----
00000.M2TS      4113 (0x1011)   0x1B            AVC                                     4957,870                32 985                  20 441 849 252  111 166 872
00000.M2TS      4352 (0x1100)   0x86            DTS-HD MA       eng (English)           4957,870                6 781                   4 202 380 488   23 616 021
00000.M2TS      4353 (0x1101)   0x80            LPCM            eng (English)           4957,870                4 614                   2 859 748 444   15 865 456
00000.M2TS      4608 (0x1200)   0x90            PGS             eng (English)           4957,870                38                      23 782 049      135 720
00000.M2TS      4609 (0x1201)   0x90            PGS             fra (French)            4957,870                25                      15 298 617      87 186
00000.M2TS      4610 (0x1202)   0x90            PGS             deu (German)            4957,870                26                      15 989 228      91 050
00000.M2TS      4611 (0x1203)   0x90            PGS             ita (Italian)           4957,870                26                      16 188 102      92 127
00000.M2TS      4612 (0x1204)   0x90            PGS             spa (Spanish)           4957,870                33                      20 593 431      118 064
00000.M2TS      4613 (0x1205)   0x90            PGS             nld (Dutch)             4957,870                25                      15 226 385      86 911
00000.M2TS      4614 (0x1206)   0x90            PGS             spa (Spanish)           4957,870                24                      15 028 479      85 728
00000.M2TS      4615 (0x1207)   0x90            PGS             por (Portuguese)        4957,870                26                      15 900 474      90 563
00000.M2TS      4616 (0x1208)   0x90            PGS             pol (Polish)            4957,870                24                      15 106 108      86 220
00000.M2TS      4617 (0x1209)   0x90            PGS             eng (English)           4957,870                1                       779 838         4 493

Код:
<---- END FORUMS PASTE ---->
QUICK SUMMARY:
Disc Title: Depeche Mode - Spirits in the Forest
Disc Size: 29 177 883 122 bytes
Protection: AACS
BD-Java: No
Playlist: 00026.MPLS
Size: 29 124 968 448 bytes
Length: 1:22:37.953
Total Bitrate: 47,00 Mbps
Video: MPEG-4 AVC Video / 32984 kbps / 1080p / 23,976 fps / 16:9 / High Profile 4.1
Audio: English / DTS-HD Master Audio / 5.1 / 96 kHz / 6781 kbps / 24-bit (DTS Core: 5.1 / 48 kHz / 1509 kbps / 24-bit)
Audio: English / LPCM Audio / 2.0 / 96 kHz / 4608 kbps / 24-bit
Subtitle: English / 38,374 kbps
Subtitle: French / 24,685 kbps
Subtitle: German / 25,800 kbps
Subtitle: Italian / 26,121 kbps
Subtitle: Spanish / 33,229 kbps
Subtitle: Dutch / 24,569 kbps
Subtitle: Spanish / 24,249 kbps
Subtitle: Portuguese / 25,657 kbps
Subtitle: Polish / 24,375 kbps
Subtitle: English / 1,258 kbps
#777
Правила, инструкции, FAQ!!!
Торрент  Добавлен [08 июл 2020, 10:12] Скачать торрент Магнет ссылка
Скачать торрент
[ Размер 356.21 КБ / Просмотров 29 ]

Статус
Проверен 
 
Размер  69.36 ГБ
Приватный: Нет (DHT включён)
.torrent скачан  2
 


     Отправить личное сообщение
   
Страница 1 из 1
Показать сообщения за:  Поле сортировки  
Начать новую тему Ответить на тему


Сейчас этот форум просматривают: нет зарегистрированных пользователей и гости: 0


Вы не можете начинать темы
Вы не можете отвечать на сообщения
Вы не можете редактировать свои сообщения
Вы не можете удалять свои сообщения
Вы не можете добавлять вложения

Перейти:  
cron