Начать новую тему Ответить на тему
Статистика раздачи
Размер: 42.55 ГБ | Добавлен: 05 июн 2020, 22:19 | Скачали: 0
Сидеров: 0  [0 байт/сек]    Личеров: 0  [0 байт/сек]
Пред. тема | След. тема 

Автор
Сообщение

СообщениеДобавлено: 05 июн 2020, 22:19 

Ответить с цитатой 

Delibes - Lakme / Лакме
Год выпуска: 2012
Лейбл: Opera Australia
Страна-производитель: США
Жанр: опера
Продолжительность: 02:16:40
Язык: Французский
Перевод: отсутствует
Субтитры: английские, французские, немецкие, испанские, итальянские
Исполнители:
Stephen Bennett - Nilakantha, старший индусский брамин
Emma Matthews - Lakme, дочь индусского брамина Нилаканты
Edmond Choo - Hadji, слуга Нилаканты
Dominica Matthews - Mallika, прислужница Лакме
Roxane Hislop - Mistress Bentson, гувернантка Елены
Jane Parkin - Ellen, дочь английского губернатора в Индии
Angela Brun - Rose, сестра Елены
Aldo di Toro - Gerald, английский офицер
Luke Gabbedy - Frederic, друг Геральда
Benjamin Rasheed - Fortune Teller
Nara Lee - Chinese Merchant
Adrian Tamburini - Pickpocket
Оркестр: Australian Opera and Ballet Orchestra
Хор: Opera Australia Chorus
Дирижёр: Emmanuel Joel-Hornak
Описание: Lakme, величайшая опера Лео Делиба, представлена Австралийской Оперой во всём восточном великолепии этого произведения. Главные партии исполняют: изысканное колоратурное сопрано Эмма Мэтьюс в роли невинной девочки-жрицы Lakme и превосходный тенор Альдо де Торо в роли влюблённого Джеральда. В либретто рассматривается взаимоотношение религии и любви между носителями разных культур на фоне Британского правления в Индии середины 19-го века. Французский дирижёр Эммануил Джоэл-Хорняк сумел донести всю глубину чувственной волнующей музыки. При этом знакомые высшие точки партитуры – партия Дуэт Цветов и Песнь Колокольчика – красиво сыграны слегка по-новому. Доминика Мэтьюс привносит свой сочный голос в роли Малики, Стивен Беннет мрачно властвует как жрец-брамин Никаланта и отец Лакмэ, а Роксана Хислоп в совершенстве исполнила госпожу Бенсон. Декорации и костюмы, выполненные Марком Томсоном, наполняют сцену богатством красок, свободного пространства и экзотики, дополняемые тёплым освещением Найджела Левингса. Эта переосмысленная постановка, задуманная изначально Адамом Куком, искусно дирижируется Роджером Ходжманом.
Доп. информация: «Лакме» (фр. Lakmé) — опера в трех актах, написанная Лео Делибом на либретто Эдмона Гондине и Филиппа Жиля, основанном на романе Пьера Лоти «Рараю, или Женитьба Лоти». Премьера состоялась 14 апреля 1883 года в Опера Комик в Париже.
Качество видео: Blu-ray
Формат/Контейнер: BDAV
Видео кодек: MPEG-4
Аудио кодек: DTS-HD MA, LPCM
Видео поток: MPEG-4 AVC, 36.8 Mbps, 1920x1080, 29.970 fps
Аудио 1: French, DTS-HD MA, 6 ch, 4014 kbps
Аудио 2: French, LPCM, 2 ch, 2304 kbps
General
Format : BDAV
Format/Info : Blu-ray Video
File size : 40.5 GiB
Duration : 2h 16mn
Overall bit rate mode : Variable
Overall bit rate : 42.4 Mbps
Maximum Overall bit rate : 48.0 Mbps
Video
ID : 4113 (0x1011)
Menu ID : 1 (0x1)
Format : AVC
Format/Info : Advanced Video Codec
Format profile : High@L4.1
Format settings, CABAC : Yes
Format settings, ReFrames : 2 frames
Codec ID : 27
Duration : 2h 16mn
Bit rate mode : Variable
Bit rate : 36.8 Mbps
Width : 1 920 pixels
Height : 1 080 pixels
Display aspect ratio : 16:9
Frame rate : 29.970 fps
Color space : YUV
Chroma subsampling : 4:2:0
Bit depth : 8 bits
Scan type : Interlaced
Scan order : Top Field First
Bits/(Pixel*Frame) : 0.593
Stream size : 35.2 GiB (87%)
Audio #1
ID : 4352 (0x1100)
Menu ID : 1 (0x1)
Format : DTS
Format/Info : Digital Theater Systems
Format profile : MA / Core
Muxing mode : Stream extension
Codec ID : 134
Duration : 2h 16mn
Bit rate mode : Variable
Bit rate : 1 561 Kbps / 1 510 Kbps
Channel(s) : 6 channels
Channel positions : Front: L C R, Side: L R, LFE
Sampling rate : 48.0 KHz
Bit depth : 24 bits
Compression mode : Lossless / Lossy
Audio #2
ID : 4353 (0x1101)
Menu ID : 1 (0x1)
Format : PCM
Format settings, Endianness : Big
Format settings, Sign : Signed
Muxing mode : Blu-ray
Codec ID : 128
Duration : 2h 16mn
Bit rate mode : Constant
Bit rate : 2 304 Kbps
Channel(s) : 2 channels
Channel positions : Front: L R
Sampling rate : 48.0 KHz
Bit depth : 24 bits
Stream size : 2.20 GiB (5%)
Text #1
ID : 4608 (0x1200)
Menu ID : 1 (0x1)
Format : PGS
Codec ID : 144
Text #2
ID : 4609 (0x1201)
Menu ID : 1 (0x1)
Format : PGS
Codec ID : 144
Text #3
ID : 4610 (0x1202)
Menu ID : 1 (0x1)
Format : PGS
Codec ID : 144
Text #4
ID : 4611 (0x1203)
Menu ID : 1 (0x1)
Format : PGS
Codec ID : 144
Text #5
ID : 4612 (0x1204)
Menu ID : 1 (0x1)
Format : PGS
Codec ID : 144

Правила, инструкции, FAQ!!!
Торрент  Добавлен [05 июн 2020, 22:19] Скачать торрент Магнет ссылка
Скачать торрент
[ Размер 215.65 КБ / Просмотров 4 ]

Статус
Проверен 
 
Размер  42.55 ГБ
Приватный: Нет (DHT включён)
.torrent скачан  0
 


     Отправить личное сообщение
   
Страница 1 из 1
Показать сообщения за:  Поле сортировки  
Начать новую тему Ответить на тему


Сейчас этот форум просматривают: нет зарегистрированных пользователей и гости: 0


Вы не можете начинать темы
Вы не можете отвечать на сообщения
Вы не можете редактировать свои сообщения
Вы не можете удалять свои сообщения
Вы не можете добавлять вложения

Перейти:  
cron