Начать новую тему Ответить на тему
Статистика раздачи
Размер: 214.37 МБ | Добавлен: 26 июн 2020, 20:07 | Скачали: 0
Сидеров: 0  [0 байт/сек]    Личеров: 0  [0 байт/сек]
Пред. тема | След. тема 

Автор
Сообщение

СообщениеДобавлено: 26 июн 2020, 20:07 

Ответить с цитатой 

Umbra / Ater
Жанр: Darkwave
Носитель: CD
Страна-производитель диска (релиза): Poland
Год издания: 1999
Издатель (лейбл): Fluttering Dragon
Номер по каталогу: Fluttering Dragon 09
Страна исполнителя (группы): Poland
Аудиокодек: FLAC (*.flac)
Тип рипа: tracks+.cue
Битрейт аудио: lossless
Продолжительность: 40:15
Источник (релизер): собственный рип
Наличие сканов в содержимом раздачи: да
Треклист:
1. Evil Rules
2. Ashes
3. Bitters
4. No Sun
5. Fobia
6. Utter Darkness
7. Terror
8. The Realm
9. Din
Код:
Exact Audio Copy V1.0 beta 3 from 29. August 2011
EAC extraction logfile from 19. September 2012, 18:59
Umbra / Ater
Used drive  : Optiarc DVD RW AD-7261S   Adapter: 1  ID: 0
Read mode               : Secure
Utilize accurate stream : Yes
Defeat audio cache      : Yes
Make use of C2 pointers : No
Read offset correction                      : 48
Overread into Lead-In and Lead-Out          : No
Fill up missing offset samples with silence : Yes
Delete leading and trailing silent blocks   : No
Null samples used in CRC calculations       : Yes
Used interface                              : Native Win32 interface for Win NT & 2000
Gap handling                                : Appended to previous track
Used output format              : User Defined Encoder
Selected bitrate                : 1024 kBit/s
Quality                         : High
Add ID3 tag                     : No
Command line compressor         : C:\Program Files (x86)\Exact Audio Copy\FLAC\FLAC.EXE
Additional command line options : -8 -V -T "ARTIST=%artist%" -T "TITLE=%title%" -T "ALBUM=%albumtitle%" -T "DATE=%year%" -T "TRACKNUMBER=%tracknr%" -T "GENRE=%genre%" -T "COMMENT=%comment%" -T "BAND=%albuminterpret%" -T "ALBUMARTIST=%albuminterpret%" -T "COMPOSER=%composer%" %haslyrics%--tag-from-file=LYRICS="%lyricsfile%"%haslyrics% -T "DISCNUMBER=%cdnumber%" -T "TOTALDISCS=%totalcds%" -T "TOTALTRACKS=%numtracks%" %hascover%--picture="%coverfile%"%hascover% %source% -o %dest%
TOC of the extracted CD
     Track |   Start  |  Length  | Start sector | End sector
    ---------------------------------------------------------
        1  |  0:00.00 |  2:18.31 |         0    |    10380
        2  |  2:18.31 |  5:52.71 |     10381    |    36851
        3  |  8:11.27 |  4:26.17 |     36852    |    56818
        4  | 12:37.44 |  4:43.47 |     56819    |    78090
        5  | 17:21.16 |  5:59.42 |     78091    |   105057
        6  | 23:20.58 |  5:13.63 |    105058    |   128595
        7  | 28:34.46 |  2:56.22 |    128596    |   141817
        8  | 31:30.68 |  2:40.47 |    141818    |   153864
        9  | 34:11.40 |  6:08.42 |    153865    |   181506
Track  1
     Filename G:\2\01 - Evil Rules.wav
     Pre-gap length  0:00:02.00
     Peak level 96.5 %
     Extraction speed 1.7 X
     Track quality 99.9 %
     Test CRC 80784F66
     Copy CRC 80784F66
     Track not present in AccurateRip database
     Copy OK
Track  2
     Filename G:\2\02 - Ashes.wav
     Pre-gap length  0:00:02.00
     Peak level 99.9 %
     Extraction speed 2.7 X
     Track quality 100.0 %
     Test CRC E02BF87D
     Copy CRC E02BF87D
     Track not present in AccurateRip database
     Copy OK
Track  3
     Filename G:\2\03 - Bitters.wav
     Pre-gap length  0:00:02.00
     Peak level 93.5 %
     Extraction speed 2.6 X
     Track quality 99.9 %
     Test CRC 9EB74A6F
     Copy CRC 9EB74A6F
     Track not present in AccurateRip database
     Copy OK
Track  4
     Filename G:\2\04 - No Sun.wav
     Pre-gap length  0:00:02.00
     Peak level 95.9 %
     Extraction speed 3.2 X
     Track quality 100.0 %
     Test CRC A8C54E09
     Copy CRC A8C54E09
     Track not present in AccurateRip database
     Copy OK
Track  5
     Filename G:\2\05 - Fobia.wav
     Pre-gap length  0:00:02.00
     Peak level 98.7 %
     Extraction speed 3.3 X
     Track quality 99.9 %
     Test CRC 052C7EFF
     Copy CRC 052C7EFF
     Track not present in AccurateRip database
     Copy OK
Track  6
     Filename G:\2\06 - Utter Darkness.wav
     Pre-gap length  0:00:02.00
     Peak level 92.3 %
     Extraction speed 3.8 X
     Track quality 100.0 %
     Test CRC CECC34BC
     Copy CRC CECC34BC
     Track not present in AccurateRip database
     Copy OK
Track  7
     Filename G:\2\07 - Terror.wav
     Pre-gap length  0:00:02.00
     Peak level 96.6 %
     Extraction speed 3.1 X
     Track quality 99.9 %
     Test CRC 11057DE2
     Copy CRC 11057DE2
     Track not present in AccurateRip database
     Copy OK
Track  8
     Filename G:\2\08 - The Realm.wav
     Pre-gap length  0:00:02.00
     Peak level 98.4 %
     Extraction speed 3.7 X
     Track quality 100.0 %
     Test CRC 725550AD
     Copy CRC 725550AD
     Track not present in AccurateRip database
     Copy OK
Track  9
     Filename G:\2\09 - Din.wav
     Pre-gap length  0:00:02.00
     Peak level 96.9 %
     Extraction speed 4.1 X
     Track quality 100.0 %
     Test CRC F91F2DEF
     Copy CRC F91F2DEF
     Track not present in AccurateRip database
     Copy OK
None of the tracks are present in the AccurateRip database
No errors occurred
End of status report
==== Log checksum 9DD883936C6FEC58DD5684334C78F220C217531E8BC8742FD7ECD4C678D75BBE ====
Код:
REM GENRE "Industrial, Ambient"
REM DATE 1999
REM DISCID 68097409
REM COMMENT "ExactAudioCopy v1.0b3"
PERFORMER "Umbra"
TITLE "Ater"
FILE "01 - Evil Rules.wav" WAVE
  TRACK 01 AUDIO
    TITLE "Evil Rules"
    PERFORMER "Umbra"
    INDEX 01 00:00:00
  TRACK 02 AUDIO
    TITLE "Ashes"
    PERFORMER "Umbra"
    INDEX 00 02:16:31
FILE "02 - Ashes.wav" WAVE
    INDEX 01 00:00:00
  TRACK 03 AUDIO
    TITLE "Bitters"
    PERFORMER "Umbra"
    INDEX 00 05:50:71
FILE "03 - Bitters.wav" WAVE
    INDEX 01 00:00:00
  TRACK 04 AUDIO
    TITLE "No Sun"
    PERFORMER "Umbra"
    INDEX 00 04:24:17
FILE "04 - No Sun.wav" WAVE
    INDEX 01 00:00:00
  TRACK 05 AUDIO
    TITLE "Fobia"
    PERFORMER "Umbra"
    INDEX 00 04:41:47
FILE "05 - Fobia.wav" WAVE
    INDEX 01 00:00:00
  TRACK 06 AUDIO
    TITLE "Utter Darkness"
    PERFORMER "Umbra"
    INDEX 00 05:57:42
FILE "06 - Utter Darkness.wav" WAVE
    INDEX 01 00:00:00
  TRACK 07 AUDIO
    TITLE "Terror"
    PERFORMER "Umbra"
    INDEX 00 05:11:63
FILE "07 - Terror.wav" WAVE
    INDEX 01 00:00:00
  TRACK 08 AUDIO
    TITLE "The Realm"
    PERFORMER "Umbra"
    INDEX 00 02:54:22
FILE "08 - The Realm.wav" WAVE
    INDEX 01 00:00:00
  TRACK 09 AUDIO
    TITLE "Din"
    PERFORMER "Umbra"
    INDEX 00 02:38:47
FILE "09 - Din.wav" WAVE
    INDEX 01 00:00:00
Доп. информация: Umbra название группы Sui Generis Umbra до 2001 года.
Правила, инструкции, FAQ!!!
Торрент  Добавлен [26 июн 2020, 20:07] Скачать торрент Магнет ссылка
Скачать торрент
[ Размер 35.97 КБ / Просмотров 5 ]

Статус
Проверен 
 
Размер  214.37 МБ
Приватный: Нет (DHT включён)
.torrent скачан  0
 


     Отправить личное сообщение
   
Страница 1 из 1
Показать сообщения за:  Поле сортировки  
Начать новую тему Ответить на тему


Сейчас этот форум просматривают: нет зарегистрированных пользователей и гости: 0


Вы не можете начинать темы
Вы не можете отвечать на сообщения
Вы не можете редактировать свои сообщения
Вы не можете удалять свои сообщения
Вы не можете добавлять вложения

Перейти:  
cron