Начать новую тему Ответить на тему
Статистика раздачи
Размер: 139.28 МБ | Добавлен: 26 июн 2020, 16:48 | Скачали: 0
Сидеров: 0  [0 байт/сек]    Личеров: 0  [0 байт/сек]
Пред. тема | След. тема 

Автор
Сообщение

СообщениеДобавлено: 26 июн 2020, 16:48 

Ответить с цитатой 

Sara Noxx / Society [Single]
Жанр: darkwave / synth pop
Страна-производитель диска: Germany
Год издания диска: 1997
Издатель (лейбл): Nightshade Productions
Аудио кодек: FLAC (*.flac)
Тип рипа: image+.cue
Битрейт аудио: lossless
Продолжительность: 21:05.00
Источник (релизер): Физический носитель
Наличие сканов в содержимом раздачи: да
Треклист:
1. Society (SSExPRess) [6:01]
2. Je T'aime...Moi Non Plus (feat. Darrin Huss) [4:36]
3. Unveiling The Secret [3:54]
4. Society [4:01]
5. Devoted To You [2:07]
6. Short Moment (Shortest Moment) [0:05]
7. Untitled [0:21]
Код:
Exact Audio Copy V0.99 prebeta 5 from 4. May 2009
Отчёт EAC об извлечении, выполненном 13. августа 2010, 22:38
Sara Noxx / Society [Single]
Дисковод: Optiarc DVD RW AD-7173A   Adapter: 0  ID: 0
Режим чтения                 : Достоверность
Использование точного потока : Да
Отключение кэша аудио        : Да
Использование указателей C2  : Нет
Коррекция смещения при чтении                     : 48
Способность читать области Lead-in и Lead-out     : Нет
Заполнение пропущенных сэмплов тишиной            : Да
Удаление блоков с тишиной в начале и конце        : Нет
При вычислениях CRC использовались нулевые сэмплы : Да
Интерфейс                                         : Установленный внешний ASPI-интерфейс
Выходной формат          : Пользовательский кодировщик
Выбранный битрейт        : 1024 kBit/s
Качество                 : Высокий
Добавление ID3-тэга      : Нет
Утилита сжатия           : C:\Program Files\Exact Audio Copy\flac.exe
Дополнительные параметры : -6 -V -T "ARTIST=%a" -T "TITLE=%t" -T "ALBUM=%g" -T "DATE=%y" -T "TRACKNUMBER=%n" -T "GENRE=%m" -T "COMMENT=%e" %s -o %d
TOC извлечённого CD
     Трек |   Старт  | Длительность | Начальный сектор | Конечный сектор
    ---------------------------------------------------------------------
       1  |  0:00.00 |    6:01.10   |           0      |      27084
       2  |  6:01.10 |    4:35.70   |       27085      |      47779
       3  | 10:37.05 |    3:54.22   |       47780      |      65351
       4  | 14:31.27 |    4:00.38   |       65352      |      83389
       5  | 18:31.65 |    2:06.45   |       83390      |      92884
       6  | 20:38.35 |    0:05.30   |       92885      |      93289
       7  | 20:43.65 |    0:21.10   |       93290      |      94874
Характеристики диапазона извлечения и сообщения об ошибках
Выбранный диапазон
     Имя файла H:\СКАЧКА\FLAC\1 TORRENT\Sara Noxx - Society [Single].wav
     Пиковый уровень 98.4 %
     Качество диапазона 99.9 %
     CRC теста 09F2C3EF
     CRC копии 09F2C3EF
     Копирование... OK
Ошибок не произошло
AccurateRip: сводка
Трек  1  точное извлечение (доверие 1)  [F07E7FAA]
Трек  2  точное извлечение (доверие 1)  [3C67F927]
Трек  3  точное извлечение (доверие 1)  [820B318E]
Трек  4  точное извлечение (доверие 1)  [91DE6DCC]
Трек  5  точное извлечение (доверие 1)  [793A00F0]
Трек  6  нет в базе данных
Трек  7  точное извлечение (доверие 1)  [6EFE5C9C]
 6 трек(и) скопированы точно
 1 трек(и) не содержатся в базе AccurateRip
Некоторые треки не прошли проверку на точность
Конец отчёта
Хочешь скачать, но не можешь из-за отсутствия сидов - пиши в личку!
Правила, инструкции, FAQ!!!
Торрент  Добавлен [26 июн 2020, 16:48] Скачать торрент Магнет ссылка
Скачать торрент
[ Размер 11.71 КБ / Просмотров 6 ]

Статус
Проверен 
 
Размер  139.28 МБ
Приватный: Нет (DHT включён)
.torrent скачан  0
 


     Отправить личное сообщение
   
Страница 1 из 1
Показать сообщения за:  Поле сортировки  
Начать новую тему Ответить на тему


Сейчас этот форум просматривают: нет зарегистрированных пользователей и гости: 0


Вы не можете начинать темы
Вы не можете отвечать на сообщения
Вы не можете редактировать свои сообщения
Вы не можете удалять свои сообщения
Вы не можете добавлять вложения

Перейти:  
cron