Начать новую тему Ответить на тему
Статистика раздачи
Размер: 590.03 МБ | Добавлен: 26 июн 2020, 17:14 | Скачали: 1
Сидеров: 0  [0 байт/сек]    Личеров: 3  [0 байт/сек]
Пред. тема | След. тема 

Автор
Сообщение

СообщениеДобавлено: 26 июн 2020, 17:14 

Ответить с цитатой 

Sara Noxx - In(t)oxxication
Жанр: darkwave / synth pop
Год выпуска диска: 2009
Производитель диска: (Prussia Records, Germany)
Аудио кодек: FLAC
Тип рипа: image+.cue
Битрейт аудио: lossless
Продолжительность: 1:03:14.24
Трэклист:
01. Flight 257 [4:49]
02. Deeper [4:50]
03. Your Song [2:30]
04. Heart In The Snow [4:59]
05. So Much More [5:39]
06. Superior Love [3:54]
07. Was It [2:45]
08. Prepossessing [3:55]
09. Hymn [4:42]
10. Prelude [5:58]
11. Russian Dream [1:12]
12. In Flame [4:50]
13. Spuren [4:29]
14. Just Alive [3:48]
15. In Former Times [1:38]
16. Berlin At Night [3:17]
Источник: Физический носитель
Код:
Exact Audio Copy V0.99 prebeta 5 from 4. May 2009
Отчёт EAC об извлечении, выполненном 7. мая 2010, 9:45
Sara Noxx / In(t)oxxication
Дисковод: Optiarc DVD RW AD-7173A   Adapter: 0  ID: 0
Режим чтения                 : Достоверность
Использование точного потока : Да
Отключение кэша аудио        : Да
Использование указателей C2  : Нет
Коррекция смещения при чтении                     : 48
Способность читать области Lead-in и Lead-out     : Нет
Заполнение пропущенных сэмплов тишиной            : Да
Удаление блоков с тишиной в начале и конце        : Нет
При вычислениях CRC использовались нулевые сэмплы : Да
Интерфейс                                         : Установленный внешний ASPI-интерфейс
Выходной формат          : Пользовательский кодировщик
Выбранный битрейт        : 1024 kBit/s
Качество                 : Высокий
Добавление ID3-тэга      : Нет
Утилита сжатия           : C:\Program Files\Exact Audio Copy\Flac\flac.exe
Дополнительные параметры : -6 -V -T "ARTIST=%a" -T "TITLE=%t" -T "ALBUM=%g" -T "DATE=%y" -T "TRACKNUMBER=%n" -T "GENRE=%m" -T "COMMENT=%e" %s -o %d
TOC извлечённого CD
     Трек |   Старт  | Длительность | Начальный сектор | Конечный сектор
    ---------------------------------------------------------------------
       1  |  0:00.00 |    4:49.03   |           0      |      21677
       2  |  4:49.03 |    4:49.39   |       21678      |      43391
       3  |  9:38.42 |    2:30.00   |       43392      |      54641
       4  | 12:08.42 |    4:59.12   |       54642      |      77078
       5  | 17:07.54 |    5:38.72   |       77079      |     102500
       6  | 22:46.51 |    3:54.16   |      102501      |     120066
       7  | 26:40.67 |    2:45.14   |      120067      |     132455
       8  | 29:26.06 |    3:55.25   |      132456      |     150105
       9  | 33:21.31 |    4:41.47   |      150106      |     171227
      10  | 38:03.03 |    5:58.08   |      171228      |     198085
      11  | 44:01.11 |    1:11.48   |      198086      |     203458
      12  | 45:12.59 |    4:50.17   |      203459      |     225225
      13  | 50:03.01 |    4:28.48   |      225226      |     245373
      14  | 54:31.49 |    3:47.62   |      245374      |     262460
      15  | 58:19.36 |    1:38.04   |      262461      |     269814
      16  | 59:57.40 |    3:16.59   |      269815      |     284573
Характеристики диапазона извлечения и сообщения об ошибках
Выбранный диапазон
     Имя файла H:\СКАЧКА\FLAC\1 TORRENT\Sara Noxx - In(t)oxxication.wav
     Пиковый уровень 99.0 %
     Качество диапазона 100.0 %
     CRC теста 3AA4F387
     CRC копии 3AA4F387
     Копирование... OK
Ошибок не произошло
AccurateRip: сводка
Трек  1  точное извлечение (доверие 2)  [E6AE87D1]
Трек  2  точное извлечение (доверие 2)  [26551747]
Трек  3  точное извлечение (доверие 2)  [60FE0C93]
Трек  4  точное извлечение (доверие 2)  [350B9E41]
Трек  5  точное извлечение (доверие 2)  [F1E74D2B]
Трек  6  точное извлечение (доверие 2)  [509B431C]
Трек  7  точное извлечение (доверие 2)  [343B7A16]
Трек  8  точное извлечение (доверие 2)  [BE935F7E]
Трек  9  точное извлечение (доверие 2)  [7F3C548F]
Трек 10  точное извлечение (доверие 2)  [D45ADA8B]
Трек 11  точное извлечение (доверие 2)  [32CAC110]
Трек 12  точное извлечение (доверие 2)  [B90E4EA0]
Трек 13  точное извлечение (доверие 2)  [65C164C6]
Трек 14  точное извлечение (доверие 2)  [A0D6CFF0]
Трек 15  точное извлечение (доверие 2)  [B1C14B24]
Трек 16  точное извлечение (доверие 2)  [466A83FB]
Все треки извлечены точно
Конец отчёта
Хочешь скачать, но не можешь из-за отсутствия сидов - пиши в личку!
Правила, инструкции, FAQ!!!
Торрент  Добавлен [26 июн 2020, 17:14] Скачать торрент Магнет ссылка
Скачать торрент
[ Размер 19.38 КБ / Просмотров 14 ]

Статус
Проверен 
 
Размер  590.03 МБ
Приватный: Нет (DHT включён)
.torrent скачан  1
 


     Отправить личное сообщение
   
Страница 1 из 1
Показать сообщения за:  Поле сортировки  
Начать новую тему Ответить на тему


Сейчас этот форум просматривают: нет зарегистрированных пользователей и гости: 0


Вы не можете начинать темы
Вы не можете отвечать на сообщения
Вы не можете редактировать свои сообщения
Вы не можете удалять свои сообщения
Вы не можете добавлять вложения

Перейти:  
cron