Начать новую тему Ответить на тему
Статистика раздачи
Размер: 361.21 МБ | Добавлен: 26 июн 2020, 17:06 | Скачали: 0
Сидеров: 0  [0 байт/сек]    Личеров: 0  [0 байт/сек]
Пред. тема | След. тема 

Автор
Сообщение

СообщениеДобавлено: 26 июн 2020, 17:06 

Ответить с цитатой 

Sara Noxx feat. 18 Summers - Superior Love [Single]
Жанр: darkwave synth pop
Год выпуска диска: 2009
Производитель диска: (Prussia Records, Germany)
Аудио кодек: FLAC
Тип рипа: image+.cue
Битрейт аудио: lossless
Продолжительность: 51:00.63
Трэклист:
01. Superior Love [3:51]
02. Superior Love (Clubmix) [4:21]
03. Superior Love (Girls Under Glass rmx) [7:37]
04. Superior Love (Dark Territory rmx) [6:47]
05. Superior Love (Illuminate rmx) [4:06]
06. Superior Love (Album Version) [3:54]
07. Superior Love (Blutengel rmx) [5:20]
08. Superior Love (Funker Vogt rmx) [6:01]
09. Superior Love (In My Rosary rmx) [4:36]
10. Prelude (Vylevirtue rmx) [4:27]
Источник: Физический носитель
Код:
Exact Audio Copy V0.99 prebeta 5 from 4. May 2009
Отчёт EAC об извлечении, выполненном 22. мая 2010, 14:34
 Sara Noxx feat. 18 Summers /  Superior Love [Single]
Дисковод: Optiarc DVD RW AD-7173A   Adapter: 0  ID: 0
Режим чтения                 : Достоверность
Использование точного потока : Да
Отключение кэша аудио        : Да
Использование указателей C2  : Нет
Коррекция смещения при чтении                     : 48
Способность читать области Lead-in и Lead-out     : Нет
Заполнение пропущенных сэмплов тишиной            : Да
Удаление блоков с тишиной в начале и конце        : Нет
При вычислениях CRC использовались нулевые сэмплы : Да
Интерфейс                                         : Установленный внешний ASPI-интерфейс
Выходной формат          : Пользовательский кодировщик
Выбранный битрейт        : 1024 kBit/s
Качество                 : Высокий
Добавление ID3-тэга      : Нет
Утилита сжатия           : C:\Program Files\Exact Audio Copy\Flac\flac.exe
Дополнительные параметры : -6 -V -T "ARTIST=%a" -T "TITLE=%t" -T "ALBUM=%g" -T "DATE=%y" -T "TRACKNUMBER=%n" -T "GENRE=%m" -T "COMMENT=%e" %s -o %d
TOC извлечённого CD
     Трек |   Старт  | Длительность | Начальный сектор | Конечный сектор
    ---------------------------------------------------------------------
       1  |  0:00.00 |    3:51.19   |           0      |      17343
       2  |  3:51.19 |    4:20.66   |       17344      |      36909
       3  |  8:12.10 |    7:37.17   |       36910      |      71201
       4  | 15:49.27 |    6:47.19   |       71202      |     101745
       5  | 22:36.46 |    4:06.05   |      101746      |     120200
       6  | 26:42.51 |    3:54.16   |      120201      |     137766
       7  | 30:36.67 |    5:20.09   |      137767      |     161775
       8  | 35:57.01 |    6:00.46   |      161776      |     188821
       9  | 41:57.47 |    4:36.08   |      188822      |     209529
      10  | 46:33.55 |    4:27.08   |      209530      |     229562
Характеристики диапазона извлечения и сообщения об ошибках
Выбранный диапазон
     Имя файла H:\СКАЧКА\FLAC\1 TORRENT\Sara Noxx feat. 18 Summers -  Superior Love [Single].wav
     Пиковый уровень 100.0 %
     Качество диапазона 99.9 %
     CRC теста 8B812608
     CRC копии 8B812608
     Копирование... OK
Ошибок не произошло
AccurateRip: сводка
Трек  1  точное извлечение (доверие 1)  [83037FBA]
Трек  2  точное извлечение (доверие 1)  [3C22CCAA]
Трек  3  точное извлечение (доверие 1)  [C629B464]
Трек  4  точное извлечение (доверие 1)  [7E5F4E50]
Трек  5  точное извлечение (доверие 1)  [87817251]
Трек  6  точное извлечение (доверие 1)  [89E860B3]
Трек  7  точное извлечение (доверие 1)  [DE72CD9D]
Трек  8  точное извлечение (доверие 1)  [D6FE8173]
Трек  9  точное извлечение (доверие 1)  [EDFB52C0]
Трек 10  точное извлечение (доверие 1)  [3A05B49A]
Все треки извлечены точно
Конец отчёта
Хочешь скачать, но не можешь из-за отсутствия сидов - пиши в личку!
Правила, инструкции, FAQ!!!
Торрент  Добавлен [26 июн 2020, 17:06] Скачать торрент Магнет ссылка
Скачать торрент
[ Размер 15.08 КБ / Просмотров 3 ]

Статус
Проверен 
 
Размер  361.21 МБ
Приватный: Нет (DHT включён)
.torrent скачан  0
 


     Отправить личное сообщение
   
Страница 1 из 1
Показать сообщения за:  Поле сортировки  
Начать новую тему Ответить на тему


Сейчас этот форум просматривают: нет зарегистрированных пользователей и гости: 0


Вы не можете начинать темы
Вы не можете отвечать на сообщения
Вы не можете редактировать свои сообщения
Вы не можете удалять свои сообщения
Вы не можете добавлять вложения

Перейти:  
cron