Начать новую тему Ответить на тему
Статистика раздачи
Размер: 290.86 МБ | Добавлен: 26 июн 2020, 20:13 | Скачали: 0
Сидеров: 0  [0 байт/сек]    Личеров: 0  [0 байт/сек]
Пред. тема | След. тема 

Автор
Сообщение

СообщениеДобавлено: 26 июн 2020, 20:13 

Ответить с цитатой 

Sara Noxx feat Project Pitchfork - Earth Song [Single]
Жанр: darkwave / synth pop
Год выпуска диска: 2008
Производитель диска: (Prussia Records, Germany)
Аудио кодек: FLAC
Тип рипа: image+.cue
Битрейт аудио: lossless
Продолжительность: 37:49.19
Трэклист:
1. Earth Song (Radio Edit) [4:05]
2. Earth Song (Original Version) [6:58]
3. Earth Song (Joachim Witt's London mix) [7:09]
4. Earth Song (Tanzwut's Teufel remix) [8:52]
5. Earth Song (Cat Rapes Dog's All Hail Ishtar mix) [5:51]
6. Earth Song (Subway To Sally's Ready To Kill mix) [4:54]
Источник: физический носитель
Код:
Exact Audio Copy V0.99 prebeta 4 from 23. January 2008
Отчёт EAC об извлечении, выполненном 30. мая 2009, 9:27
Sara Noxx feat. Project Pitchfork /   Earth Song [Single]
Дисковод: Optiarc DVD RW AD-7173A   Adapter: 0  ID: 0
Режим чтения                 : Достоверность
Использование точного потока : Да
Отключение кэша аудио        : Да
Использование указателей C2  : Нет
Коррекция смещения при чтении                     : 48
Способность читать области Lead-in и Lead-out     : Нет
Заполнение пропущенных сэмплов тишиной            : Да
Удаление блоков с тишиной в начале и конце        : Нет
При вычислениях CRC использовались нулевые сэмплы : Да
Интерфейс                                         : Встроенный Win32-интерфейс для Win NT/2000
Выходной формат          : Пользовательский кодировщик
Выбранный битрейт        : 1024 kBit/s
Качество                 : Высокий
Добавление ID3-тэга      : Нет
Утилита сжатия           : C:\Program Files\Exact Audio Copy\Flac\flac.exe
Дополнительные параметры : -6 -V -T "ARTIST=%a" -T "TITLE=%t" -T "ALBUM=%g" -T "DATE=%y" -T "TRACKNUMBER=%n" -T "GENRE=%m" -T "COMMENT=%e" %s -o %d
TOC извлечённого CD
     Трек |   Старт  | Длительность | Начальный сектор | Конечный сектор
    ---------------------------------------------------------------------
       1  |  0:00.00 |    4:04.48   |           0      |      18347
       2  |  4:04.48 |    6:58.02   |       18348      |      49699
       3  | 11:02.50 |    7:09.03   |       49700      |      81877
       4  | 18:11.53 |    8:52.18   |       81878      |     121795
       5  | 27:03.71 |    5:51.37   |      121796      |     148157
       6  | 32:55.33 |    4:53.61   |      148158      |     170193
Характеристики диапазона извлечения и сообщения об ошибках
Выбранный диапазон
     Имя файла E:\на торрент\Sara Noxx feat. Project Pitchfork -   Earth Song [Single].wav
     Пиковый уровень 99.9 %
     Качество диапазона 100.0 %
     CRC теста C58BA608
     CRC копии C58BA608
     Копирование... OK
Ошибок не произошло
AccurateRip: сводка
Трек  1  точное извлечение (доверие 1)  [7EC59D31]
Трек  2  точное извлечение (доверие 1)  [682A1222]
Трек  3  точное извлечение (доверие 1)  [9201CAB0]
Трек  4  точное извлечение (доверие 1)  [1B51245D]
Трек  5  точное извлечение (доверие 1)  [BE75C7E5]
Трек  6  точное извлечение (доверие 1)  [AEF0813B]
Все треки извлечены точно
Конец отчёта
Хочешь скачать, но не можешь из-за отсутствия сидов - пиши в личку!
Правила, инструкции, FAQ!!!
Торрент  Добавлен [26 июн 2020, 20:13] Скачать торрент Магнет ссылка
Скачать торрент
[ Размер 12.34 КБ / Просмотров 5 ]

Статус
Проверен 
 
Размер  290.86 МБ
Приватный: Нет (DHT включён)
.torrent скачан  0
 


     Отправить личное сообщение
   
Страница 1 из 1
Показать сообщения за:  Поле сортировки  
Начать новую тему Ответить на тему


Сейчас этот форум просматривают: нет зарегистрированных пользователей и гости: 0


Вы не можете начинать темы
Вы не можете отвечать на сообщения
Вы не можете редактировать свои сообщения
Вы не можете удалять свои сообщения
Вы не можете добавлять вложения

Перейти:  
cron