Начать новую тему Ответить на тему
Статистика раздачи
Размер: 351.49 МБ | Добавлен: 26 июн 2020, 17:06 | Скачали: 0
Сидеров: 0  [0 байт/сек]    Личеров: 0  [0 байт/сек]
Пред. тема | След. тема 

Автор
Сообщение

СообщениеДобавлено: 26 июн 2020, 17:06 

Ответить с цитатой 

Sara Noxx - Exxtasy
Жанр: darkwave synth pop
Год выпуска диска: 2001
Производитель диска: (Scanner, Germany)
Аудио кодек: FLAC
Тип рипа: image+.cue
Битрейт аудио: lossless
Продолжительность: 54:56.37
Трэклист:
1. Survive [03:49.01]
2. Gold (Feel The Fever) [04:11.23]
3. Last Desire [05:20.39]
4. Crying For [03:05.00]
5. Exxtasy [04:30.38]
6. So Cold [04:05.55]
7. 1999 [03:53.46]
8. In My Fingers [04:08.35]
9. In This Time [02:44.20]
10. Jeanny Part I (feat. Darrin C. Huss) [05:26.52]
11. Winter Again [04:05.43]
12. Sometimes [05:16.38]
13. Enslave Me [04:19.22]
Код:
Exact Audio Copy V0.99 prebeta 4 from 23. January 2008
Отчёт EAC об извлечении, выполненном 22. ноября 2008, 10:25
Sara Noxx / Exxtasy
Дисковод: Optiarc DVD RW AD-7173A   Adapter: 0  ID: 0
Режим чтения                 : Достоверность
Использование точного потока : Да
Отключение кэша аудио        : Да
Использование указателей C2  : Нет
Коррекция смещения при чтении                     : 48
Способность читать области Lead-in и Lead-out     : Нет
Заполнение пропущенных сэмплов тишиной            : Да
Удаление блоков с тишиной в начале и конце        : Нет
При вычислениях CRC использовались нулевые сэмплы : Да
Интерфейс                                         : Встроенный Win32-интерфейс для Win NT/2000
Выходной формат          : Пользовательский кодировщик
Выбранный битрейт        : 1024 kBit/s
Качество                 : Высокий
Добавление ID3-тэга      : Нет
Утилита сжатия           : C:\Program Files\Exact Audio Copy\Flac\flac.exe
Дополнительные параметры : -6 -V -T "ARTIST=%a" -T "TITLE=%t" -T "ALBUM=%g" -T "DATE=%y" -T "TRACKNUMBER=%n" -T "GENRE=%m" -T "COMMENT=%e" %s -o %d
TOC извлечённого CD
     Трек |   Старт  | Длительность | Начальный сектор | Конечный сектор
    ---------------------------------------------------------------------
       1  |  0:00.00 |    3:49.01   |           0      |      17175
       2  |  3:49.01 |    4:11.23   |       17176      |      36023
       3  |  8:00.24 |    5:20.39   |       36024      |      60062
       4  | 13:20.63 |    3:05.00   |       60063      |      73937
       5  | 16:25.63 |    4:30.38   |       73938      |      94225
       6  | 20:56.26 |    4:05.55   |       94226      |     112655
       7  | 25:02.06 |    3:53.46   |      112656      |     130176
       8  | 28:55.52 |    4:08.35   |      130177      |     148811
       9  | 33:04.12 |    2:44.20   |      148812      |     161131
      10  | 35:48.32 |    5:26.52   |      161132      |     185633
      11  | 41:15.09 |    4:05.43   |      185634      |     204051
      12  | 45:20.52 |    5:16.38   |      204052      |     227789
      13  | 50:37.15 |    4:19.22   |      227790      |     247236
Характеристики диапазона извлечения и сообщения об ошибках
Выбранный диапазон
     Имя файла G:\СКАЧКА\FLAC\Sara Noxx - Exxtasy.wav
     Пиковый уровень 93.7 %
     Качество диапазона 100.0 %
     CRC теста 6BFBF95A
     CRC копии 6BFBF95A
     Копирование... OK
Ошибок не произошло
Конец отчёта
Правила, инструкции, FAQ!!!
Торрент  Добавлен [26 июн 2020, 17:06] Скачать торрент Магнет ссылка
Скачать торрент
[ Размер 14.37 КБ / Просмотров 5 ]

Статус
Проверен 
 
Размер  351.49 МБ
Приватный: Нет (DHT включён)
.torrent скачан  0
 


     Отправить личное сообщение
   
Страница 1 из 1
Показать сообщения за:  Поле сортировки  
Начать новую тему Ответить на тему


Сейчас этот форум просматривают: нет зарегистрированных пользователей и гости: 0


Вы не можете начинать темы
Вы не можете отвечать на сообщения
Вы не можете редактировать свои сообщения
Вы не можете удалять свои сообщения
Вы не можете добавлять вложения

Перейти:  
cron