Начать новую тему Ответить на тему
Статистика раздачи
Размер: 339.78 МБ | Добавлен: 26 июн 2020, 17:06 | Скачали: 0
Сидеров: 0  [0 байт/сек]    Личеров: 0  [0 байт/сек]
Пред. тема | След. тема 

Автор
Сообщение

СообщениеДобавлено: 26 июн 2020, 17:06 

Ответить с цитатой 

Sara Noxx - Equinoxx
Жанр: darkwave synth pop
Год выпуска диска: 2003
Производитель диска: (Scanner, Germany)
Аудио кодек: FLAC
Тип рипа: image+.cue
Битрейт аудио: lossless
Продолжительность: 48:49.04
Трэклист:
1. Earth Song [5:04.19]
2. If You [3:28.24]
3. Summer Never Again [3:08.36]
4. Where Is The Time [2:08.48]
5. Embraces [4:01.05]
6. Fur Immer [3:38.24]
7. Colder And Colder [3:30.52]
8. Describe It Again [2:14.37]
9. Your Face in My Brain [4:34.13]
10. Nein [1:31.30]
11. Sehnsucht [3:56.33]
12. Night In My Hands 3:55.20]
13. Wherever I Am [1:55.24]
14. 2044 [3:17.20]
15. Someday [2:24.69]
Код:
Exact Audio Copy V0.99 prebeta 4 from 23. January 2008
Отчёт EAC об извлечении, выполненном 22. ноября 2008, 12:08
Sara Noxx / Equinoxx
Дисковод: Optiarc DVD RW AD-7173A   Adapter: 0  ID: 0
Режим чтения                 : Достоверность
Использование точного потока : Да
Отключение кэша аудио        : Да
Использование указателей C2  : Нет
Коррекция смещения при чтении                     : 48
Способность читать области Lead-in и Lead-out     : Нет
Заполнение пропущенных сэмплов тишиной            : Да
Удаление блоков с тишиной в начале и конце        : Нет
При вычислениях CRC использовались нулевые сэмплы : Да
Интерфейс                                         : Встроенный Win32-интерфейс для Win NT/2000
Выходной формат          : Пользовательский кодировщик
Выбранный битрейт        : 1024 kBit/s
Качество                 : Высокий
Добавление ID3-тэга      : Нет
Утилита сжатия           : C:\Program Files\Exact Audio Copy\Flac\flac.exe
Дополнительные параметры : -6 -V -T "ARTIST=%a" -T "TITLE=%t" -T "ALBUM=%g" -T "DATE=%y" -T "TRACKNUMBER=%n" -T "GENRE=%m" -T "COMMENT=%e" %s -o %d
TOC извлечённого CD
     Трек |   Старт  | Длительность | Начальный сектор | Конечный сектор
    ---------------------------------------------------------------------
       1  |  0:00.01 |    5:04.19   |           1      |      22819
       2  |  5:04.20 |    3:28.24   |       22820      |      38443
       3  |  8:32.44 |    3:08.36   |       38444      |      52579
       4  | 11:41.05 |    2:08.48   |       52580      |      62227
       5  | 13:49.53 |    4:01.05   |       62228      |      80307
       6  | 17:50.58 |    3:38.24   |       80308      |      96681
       7  | 21:29.07 |    3:30.52   |       96682      |     112483
       8  | 24:59.59 |    2:14.37   |      112484      |     122570
       9  | 27:14.21 |    4:34.13   |      122571      |     143133
      10  | 31:48.34 |    1:31.30   |      143134      |     149988
      11  | 33:19.64 |    3:56.33   |      149989      |     167721
      12  | 37:16.22 |    3:55.20   |      167722      |     185366
      13  | 41:11.42 |    1:55.24   |      185367      |     194015
      14  | 43:06.66 |    3:17.20   |      194016      |     208810
      15  | 46:24.11 |    2:24.69   |      208811      |     219679
Характеристики диапазона извлечения и сообщения об ошибках
Выбранный диапазон
     Имя файла G:\СКАЧКА\FLAC\Sara Noxx - Equinoxx.wav
     Пиковый уровень 99.9 %
     Качество диапазона 100.0 %
     CRC теста 70A93F01
     CRC копии 70A93F01
     Копирование... OK
Ошибок не произошло
Конец отчёта
Правила, инструкции, FAQ!!!
Торрент  Добавлен [26 июн 2020, 17:06] Скачать торрент Магнет ссылка
Скачать торрент
[ Размер 13.93 КБ / Просмотров 3 ]

Статус
Проверен 
 
Размер  339.78 МБ
Приватный: Нет (DHT включён)
.torrent скачан  0
 


     Отправить личное сообщение
   
Страница 1 из 1
Показать сообщения за:  Поле сортировки  
Начать новую тему Ответить на тему


Сейчас этот форум просматривают: нет зарегистрированных пользователей и гости: 0


Вы не можете начинать темы
Вы не можете отвечать на сообщения
Вы не можете редактировать свои сообщения
Вы не можете удалять свои сообщения
Вы не можете добавлять вложения

Перейти:  
cron