Начать новую тему Ответить на тему
Статистика раздачи
Размер: 189.44 МБ | Добавлен: 26 июн 2020, 17:06 | Скачали: 0
Сидеров: 0  [0 байт/сек]    Личеров: 0  [0 байт/сек]
Пред. тема | След. тема 

Автор
Сообщение

СообщениеДобавлено: 26 июн 2020, 17:06 

Ответить с цитатой 

Sara Noxx / Colder & Colder [Single]
Жанр: darkwave / synth pop
Страна-производитель диска: Germany
Год издания диска: 2003
Издатель (лейбл): Scanner
Номер по каталогу: SC 037
Аудио кодек: FLAC (*.flac)
Тип рипа: image+.cue
Битрейт аудио: lossless
Продолжительность: 27:39.57
Источник (релизер): Физический носитель
Наличие сканов в содержимом раздачи: да
Треклист:
1. Colder And Colder [3:32]
2. Colder And Colder (Tell Me Why remix) [4:35]
3. Colder And Colder (Dust Of Basement remix) [4:14]
4. Colder And Colder (Drunkness remix) [4:46]
5. Your Face In My Brain (12Inch mix) [5:42]
6. Colder And Colder (Ambience 1 mix) [4:51]
Код:
Exact Audio Copy V0.99 prebeta 5 from 4. May 2009
Отчёт EAC об извлечении, выполненном 16. июля 2010, 21:43
Sara Noxx / Colder And Colder [Single]
Дисковод: Optiarc DVD RW AD-7173A   Adapter: 0  ID: 0
Режим чтения                 : Достоверность
Использование точного потока : Да
Отключение кэша аудио        : Да
Использование указателей C2  : Нет
Коррекция смещения при чтении                     : 48
Способность читать области Lead-in и Lead-out     : Нет
Заполнение пропущенных сэмплов тишиной            : Да
Удаление блоков с тишиной в начале и конце        : Нет
При вычислениях CRC использовались нулевые сэмплы : Да
Интерфейс                                         : Установленный внешний ASPI-интерфейс
Выходной формат          : Пользовательский кодировщик
Выбранный битрейт        : 1024 kBit/s
Качество                 : Высокий
Добавление ID3-тэга      : Нет
Утилита сжатия           : C:\Program Files\Exact Audio Copy\flac.exe
Дополнительные параметры : -6 -V -T "ARTIST=%a" -T "TITLE=%t" -T "ALBUM=%g" -T "DATE=%y" -T "TRACKNUMBER=%n" -T "GENRE=%m" -T "COMMENT=%e" %s -o %d
TOC извлечённого CD
     Трек |   Старт  | Длительность | Начальный сектор | Конечный сектор
    ---------------------------------------------------------------------
       1  |  0:00.00 |    3:31.58   |           0      |      15882
       2  |  3:31.58 |    4:34.54   |       15883      |      36486
       3  |  8:06.37 |    4:14.22   |       36487      |      55558
       4  | 12:20.59 |    4:46.36   |       55559      |      77044
       5  | 17:07.20 |    5:41.50   |       77045      |     102669
       6  | 22:48.70 |    4:50.62   |      102670      |     124481
Характеристики диапазона извлечения и сообщения об ошибках
Выбранный диапазон
     Имя файла H:\СКАЧКА\FLAC\1 TORRENT\Sara Noxx - Colder And Colder [Single].wav
     Пиковый уровень 99.3 %
     Качество диапазона 100.0 %
     CRC теста 1AAF0849
     CRC копии 1AAF0849
     Копирование... OK
Ошибок не произошло
AccurateRip: сводка
Трек  1  нет в базе данных
Трек  2  нет в базе данных
Трек  3  нет в базе данных
Трек  4  нет в базе данных
Трек  5  нет в базе данных
Трек  6  нет в базе данных
Ни одного трека нет в базе AccurateRip
Конец отчёта
Хочешь скачать, но не можешь из-за отсутствия сидов - пиши в личку!
Правила, инструкции, FAQ!!!
Торрент  Добавлен [26 июн 2020, 17:06] Скачать торрент Магнет ссылка
Скачать торрент
[ Размер 15.73 КБ / Просмотров 3 ]

Статус
Проверен 
 
Размер  189.44 МБ
Приватный: Нет (DHT включён)
.torrent скачан  0
 


     Отправить личное сообщение
   
Страница 1 из 1
Показать сообщения за:  Поле сортировки  
Начать новую тему Ответить на тему


Сейчас этот форум просматривают: нет зарегистрированных пользователей и гости: 1


Вы не можете начинать темы
Вы не можете отвечать на сообщения
Вы не можете редактировать свои сообщения
Вы не можете удалять свои сообщения
Вы не можете добавлять вложения

Перейти:  
cron