Начать новую тему Ответить на тему
Статистика раздачи
Размер: 856.48 МБ | Добавлен: 26 июн 2020, 19:47 | Скачали: 0
Сидеров: 0  [0 байт/сек]    Личеров: 0  [0 байт/сек]
Пред. тема | След. тема 

Автор
Сообщение

СообщениеДобавлено: 26 июн 2020, 19:47 

Ответить с цитатой 

Sui Generis Umbra - 2 альбома


Жанр: Darkwave
Страна: Польша
Аудио кодек: FLAC
Тип рипа: image+.cue
Битрейт аудио: lossless


Лэйбл: Metal Mind Records
Продолжительность: 58:26
Трэклист:
01. eXecutrix (05:54)
02. lashta (03:28)
03. the leprosies of sin (07:27)
04. a black-headed female (06:19)
05. getorix (04:05)
06. porna (04:24)
07. alee (03:09)
08. satyriasis (05:22)
09. moment of inertia (06:00)
10. aloza (06:19)
11. eXecrable (05:48)
Код:
Exact Audio Copy V0.99 prebeta 5 from 4. May 2009
Отчёт EAC об извлечении, выполненном 22. января 2010, 19:08
Sui Generis Umbra / Coma
Дисковод: PLDS    DVD+-RW DH-16AAS   Adapter: 1  ID: 0
Режим чтения                 : Достоверность
Использование точного потока : Да
Отключение кэша аудио        : Да
Использование указателей C2  : Нет
Коррекция смещения при чтении                     : 6
Способность читать области Lead-in и Lead-out     : Нет
Заполнение пропущенных сэмплов тишиной            : Да
Удаление блоков с тишиной в начале и конце        : Нет
При вычислениях CRC использовались нулевые сэмплы : Да
Интерфейс                                         : Встроенный Win32-интерфейс для Win NT/2000
Выходной формат : Внутренние WAV-операции
Формат сэмплов  : 44.100 Гц; 16 бит; стерео
TOC извлечённого CD
     Трек |   Старт  | Длительность | Начальный сектор | Конечный сектор
    ---------------------------------------------------------------------
       1  |  0:00.00 |    5:54.71   |           0      |      26620
       2  |  5:54.71 |    3:28.61   |       26621      |      42281
       3  |  9:23.57 |    7:28.13   |       42282      |      75894
       4  | 16:51.70 |    6:20.33   |       75895      |     104427
       5  | 23:12.28 |    4:05.66   |      104428      |     122868
       6  | 27:18.19 |    4:25.13   |      122869      |     142756
       7  | 31:43.32 |    3:09.38   |      142757      |     156969
       8  | 34:52.70 |    5:22.63   |      156970      |     181182
       9  | 40:15.58 |    6:01.32   |      181183      |     208289
      10  | 46:17.15 |    6:20.27   |      208290      |     236816
      11  | 52:37.42 |    5:49.20   |      236817      |     263011
Характеристики диапазона извлечения и сообщения об ошибках
Выбранный диапазон
     Имя файла C:\Downloads\Sui Generis Umbra\2002 - Coma\Sui Generis Umbra - Coma.wav
     Пиковый уровень 100.0 %
     Качество диапазона 100.0 %
     CRC теста B181BC49
     CRC копии B181BC49
     Копирование... OK
Ошибок не произошло
AccurateRip: сводка
Трек  1  нет в базе данных
Трек  2  нет в базе данных
Трек  3  нет в базе данных
Трек  4  нет в базе данных
Трек  5  нет в базе данных
Трек  6  нет в базе данных
Трек  7  нет в базе данных
Трек  8  нет в базе данных
Трек  9  нет в базе данных
Трек 10  нет в базе данных
Трек 11  нет в базе данных
Ни одного трека нет в базе AccurateRip
Конец отчёта
#777Лэйбл: Metal Mind Records
Продолжительность: 48:59
Трэклист:
01. comayhem (6:34)
02. virtuoso of perversity (6:27)
03. heta rae (5:13)
04. paroxysm (4:49)
05. ritus sacer militaris (5:04)
06. stupor (3:12)
07. psychomachia (7:59)
08. mass Violation (9:39)
"Comayhem Videoclip Distortion", присутствующий на диске, находится в папке Video.
Код:
Exact Audio Copy V0.99 prebeta 5 from 4. May 2009
Отчёт EAC об извлечении, выполненном 22. января 2010, 19:32
Sui Generis Umbra / Amok
Дисковод: PLDS    DVD+-RW DH-16AAS   Adapter: 1  ID: 0
Режим чтения                 : Достоверность
Использование точного потока : Да
Отключение кэша аудио        : Да
Использование указателей C2  : Нет
Коррекция смещения при чтении                     : 6
Способность читать области Lead-in и Lead-out     : Нет
Заполнение пропущенных сэмплов тишиной            : Да
Удаление блоков с тишиной в начале и конце        : Нет
При вычислениях CRC использовались нулевые сэмплы : Да
Интерфейс                                         : Встроенный Win32-интерфейс для Win NT/2000
Выходной формат : Внутренние WAV-операции
Формат сэмплов  : 44.100 Гц; 16 бит; стерео
TOC извлечённого CD
     Трек |   Старт  | Длительность | Начальный сектор | Конечный сектор
    ---------------------------------------------------------------------
       1  |  0:00.00 |    6:34.64   |           0      |      29613
       2  |  6:34.64 |    6:27.41   |       29614      |      58679
       3  | 13:02.30 |    5:13.37   |       58680      |      82191
       4  | 18:15.67 |    4:49.19   |       82192      |     103885
       5  | 23:05.11 |    5:04.67   |      103886      |     126752
       6  | 28:10.03 |    3:12.11   |      126753      |     141163
       7  | 31:22.14 |    7:59.41   |      141164      |     177129
       8  | 39:21.55 |    9:37.73   |      177130      |     220477
       9  | 51:31.53 |   26:14.41   |      231878      |     349968
Характеристики диапазона извлечения и сообщения об ошибках
Выбранный диапазон
     Имя файла C:\Downloads\Sui Generis Umbra\2004 - Amok\Sui Generis Umbra - Amok.wav
     Пиковый уровень 100.0 %
     Качество диапазона 100.0 %
     CRC теста 7352B4DF
     CRC копии 7352B4DF
     Копирование... OK
Ошибок не произошло
AccurateRip: сводка
Трек  1  нет в базе данных
Трек  2  нет в базе данных
Трек  3  нет в базе данных
Трек  4  нет в базе данных
Трек  5  нет в базе данных
Трек  6  нет в базе данных
Трек  7  нет в базе данных
Трек  8  нет в базе данных
Ни одного трека нет в базе AccurateRip
Конец отчёта



Фотографии компактов прилагаются.
В папку Photos закинуты различные фотографии группы, найденные на локальном жестком диске.
Правила, инструкции, FAQ!!!
Торрент  Добавлен [26 июн 2020, 19:47] Скачать торрент Магнет ссылка
Скачать торрент
[ Размер 19.26 КБ / Просмотров 4 ]

Статус
Проверен 
 
Размер  856.48 МБ
Приватный: Нет (DHT включён)
.torrent скачан  0
 


     Отправить личное сообщение
   
Страница 1 из 1
Показать сообщения за:  Поле сортировки  
Начать новую тему Ответить на тему


Сейчас этот форум просматривают: нет зарегистрированных пользователей и гости: 0


Вы не можете начинать темы
Вы не можете отвечать на сообщения
Вы не можете редактировать свои сообщения
Вы не можете удалять свои сообщения
Вы не можете добавлять вложения

Перейти:  
cron