Начать новую тему Ответить на тему
Статистика раздачи
Размер: 276.79 МБ | Добавлен: 26 июн 2020, 16:51 | Скачали: 0
Сидеров: 0  [0 байт/сек]    Личеров: 0  [0 байт/сек]
Пред. тема | След. тема 

Автор
Сообщение

СообщениеДобавлено: 26 июн 2020, 16:51 

Ответить с цитатой 

Rookie - Power!
Жанр: Darkwave
Страна-производитель диска: Россия
Год издания: 2004
Издатель (лейбл): Soyuz Music
Номер по каталогу: Нет данных
Страна: Не знаю
Аудиокодек: FLAC (*.flac)
Тип рипа: image+.cue
Битрейт аудио: lossless
Продолжительность: 45:01
Источник (релизер): Диск из собственной коллекции
Наличие сканов в содержимом раздачи: нет
Треклист:
1.Vip
2.Move On
3.Addiction
4.Female Temptation
5.Konkav
6.Dawn
7.Fantasy
8.Trans Europa Express
9.Vorspiel
10.But We Both Know
11.Skorbut
12.Verloren
Код:
Exact Audio Copy V1.0 beta 3 from 29. August 2011
Отчёт EAC об извлечении, выполненном 5. августа 2013, 19:27
ROOKIE / Power!
Дисковод: ASUS    DRW-24B1ST   Adapter: 2  ID: 0
Режим чтения                 : Достоверность
Использование точного потока : Да
Отключение кэша аудио        : Да
Использование указателей C2  : Нет
Коррекция смещения при чтении                     : 6
Способность читать области Lead-in и Lead-out     : Да
Заполнение пропущенных сэмплов тишиной            : Да
Удаление блоков с тишиной в начале и конце        : Нет
При вычислениях CRC использовались нулевые сэмплы : Да
Интерфейс                                         : Встроенный Win32-интерфейс для Win NT/2000
Выходной формат : Внутренние WAV-операции
Формат сэмплов  : 44.100 Гц; 16 бит; стерео
TOC извлечённого CD
     Трек |   Старт  | Длительность | Начальный сектор | Конечный сектор
    ---------------------------------------------------------------------
       1  |  0:00.00 |    4:24.38   |           0      |      19837
       2  |  4:24.38 |    4:13.14   |       19838      |      38826
       3  |  8:37.52 |    2:59.52   |       38827      |      52303
       4  | 11:37.29 |    3:43.10   |       52304      |      69038
       5  | 15:20.39 |    3:24.24   |       69039      |      84362
       6  | 18:44.63 |    4:14.05   |       84363      |     103417
       7  | 22:58.68 |    4:03.46   |      103418      |     121688
       8  | 27:02.39 |    3:41.03   |      121689      |     138266
       9  | 30:43.42 |    0:49.01   |      138267      |     141942
      10  | 31:32.43 |    4:35.17   |      141943      |     162584
      11  | 36:07.60 |    3:33.41   |      162585      |     178600
      12  | 39:41.26 |    5:19.66   |      178601      |     202591
Характеристики диапазона извлечения и сообщения об ошибках
Выбранный диапазон
     Имя файла C:\Documents and Settings\ADMIN\Рабочий стол\ROOKIE - Power!.wav
     Пиковый уровень 99.7 %
     Скорость извлечения 5.5 X
     Качество диапазона 100.0 %
     CRC теста 75F1009D
     CRC копии 75F1009D
     Копирование... OK
Ошибок не произошло
AccurateRip: сводка
Трек  1  : извлечено точно (доверие 1)  [026DDE3E]  (AR v1)
Трек  2  : извлечено точно (доверие 1)  [E904E8B2]  (AR v1)
Трек  3  : извлечено точно (доверие 1)  [265FB1A8]  (AR v1)
Трек  4  : извлечено точно (доверие 1)  [E5416486]  (AR v1)
Трек  5  : извлечено точно (доверие 1)  [022527EF]  (AR v1)
Трек  6  : извлечено точно (доверие 1)  [A5001919]  (AR v1)
Трек  7  : извлечено точно (доверие 1)  [437A5B36]  (AR v1)
Трек  8  : извлечено точно (доверие 1)  [351A5778]  (AR v1)
Трек  9  : извлечено точно (доверие 1)  [94D93E61]  (AR v1)
Трек 10  : извлечено точно (доверие 1)  [4FA67E62]  (AR v1)
Трек 11  : извлечено точно (доверие 1)  [9CBC68CD]  (AR v1)
Трек 12  : извлечено точно (доверие 1)  [43840BC1]  (AR v1)
Все треки извлечены точно
Конец отчёта
==== Контрольная сумма отчёта 9434064A0D7F4BA0AF66381EF1F93AA3D9912890F8DF5382E32B8D662CC4FFFA ====
Сольная работа Саши Корна из известного электро-дуэта "Korn+Flakes". Стиль - тевтонский электропоп. Звучит так, как если бы Tricky перешел с крека на ряженку, а Тиль Линдеманн научился улыбаться, и они, нарядившись в кибер-костюмы из гардероба "Kraftwerk", пошли бы танцевать на Берлинский "Love Parade".
Глеб Лисичкин
Правила, инструкции, FAQ!!!
Торрент  Добавлен [26 июн 2020, 16:51] Скачать торрент Магнет ссылка
Скачать торрент
[ Размер 11.38 КБ / Просмотров 5 ]

Статус
Проверен 
 
Размер  276.79 МБ
Приватный: Нет (DHT включён)
.torrent скачан  0
 


     Отправить личное сообщение
   
Страница 1 из 1
Показать сообщения за:  Поле сортировки  
Начать новую тему Ответить на тему


Сейчас этот форум просматривают: нет зарегистрированных пользователей и гости: 0


Вы не можете начинать темы
Вы не можете отвечать на сообщения
Вы не можете редактировать свои сообщения
Вы не можете удалять свои сообщения
Вы не можете добавлять вложения

Перейти:  
cron