Начать новую тему Ответить на тему
Статистика раздачи
Размер: 495.32 МБ | Добавлен: 26 июн 2020, 20:33 | Скачали: 0
Сидеров: 0  [0 байт/сек]    Личеров: 0  [0 байт/сек]
Пред. тема | След. тема 

Автор
Сообщение

СообщениеДобавлено: 26 июн 2020, 20:33 

Ответить с цитатой 

Attrition
At The Fiftieth Gate
Жанр: Darkwave, Modern Classical, Industrial
Страна-производитель диска: UK
Год издания: 2007
Издатель (лейбл): A Two Gods Recording
Номер по каталогу: 14GodsCD
Страна: UK
Аудиокодек: WavPack (*.wv)
Тип рипа: image+.cue
Битрейт аудио: lossless
Продолжительность: 68:27
Источник (релизер): собственный рип
Наличие сканов в содержимом раздачи: да
01. Theme I [1:55]
02. Haydn (Or Mine) [3:13]
03. My Friend Is Golden [3:34]
04. Death Truck [3:28]
05. Peacemaker [3:03]
06. Two Miles Up [4:06]
07. Milano (Auto-Italian) [3:42]
08. Interlude [2:14]
09. History Man [3:31]
10. Theme II [2:39]
11. The Fiftieth Gate [5:26]
12. Haydn (Or Mine) 12" remix [4:10]
13. Lady Look Now [3:43]
14. Haydn (Biding Time) [3:22]
15. Sideways Glance [3:33]
16. To The Devil [3:39]
17. Take Five [4:08]
18. Shotgun Dream [4:03]
19. Haydn (The Final Cut) [4:58]
Код:
Exact Audio Copy V0.99 prebeta 5 from 4. May 2009
Отчёт EAC об извлечении, выполненном 17. июня 2012, 17:53
Attrition / At The Fiftieth Gate
Дисковод: PIONEER DVD-RW  DVR-219L   Adapter: 2  ID: 1
Режим чтения                 : Достоверность
Использование точного потока : Да
Отключение кэша аудио        : Да
Использование указателей C2  : Нет
Коррекция смещения при чтении                     : 6
Способность читать области Lead-in и Lead-out     : Нет
Заполнение пропущенных сэмплов тишиной            : Да
Удаление блоков с тишиной в начале и конце        : Нет
При вычислениях CRC использовались нулевые сэмплы : Да
Интерфейс                                         : Встроенный Win32-интерфейс для Win NT/2000
Выходной формат : Внутренние WAV-операции
Формат сэмплов  : 44.100 Гц; 16 бит; стерео
TOC извлечённого CD
     Трек |   Старт  | Длительность | Начальный сектор | Конечный сектор
    ---------------------------------------------------------------------
       1  |  0:00.00 |    1:55.18   |           0      |       8642
       2  |  1:55.18 |    3:13.35   |        8643      |      23152
       3  |  5:08.53 |    3:34.02   |       23153      |      39204
       4  |  8:42.55 |    3:27.70   |       39205      |      54799
       5  | 12:10.50 |    3:02.72   |       54800      |      68521
       6  | 15:13.47 |    4:06.32   |       68522      |      87003
       7  | 19:20.04 |    3:41.42   |       87004      |     103620
       8  | 23:01.46 |    2:13.39   |      103621      |     113634
       9  | 25:15.10 |    3:31.26   |      113635      |     129485
      10  | 28:46.36 |    2:39.34   |      129486      |     141444
      11  | 31:25.70 |    5:25.53   |      141445      |     165872
      12  | 36:51.48 |    4:09.58   |      165873      |     184605
      13  | 41:01.31 |    3:43.24   |      184606      |     201354
      14  | 44:44.55 |    3:21.44   |      201355      |     216473
      15  | 48:06.24 |    3:33.30   |      216474      |     232478
      16  | 51:39.54 |    3:39.37   |      232479      |     248940
      17  | 55:19.16 |    4:07.67   |      248941      |     267532
      18  | 59:27.08 |    4:02.40   |      267533      |     285722
      19  | 63:29.48 |    4:57.55   |      285723      |     308052
Характеристики диапазона извлечения и сообщения об ошибках
Выбранный диапазон
     Имя файла C:\Documents and Settings\agni\Мои документы\EAC\Attrition - At The Fiftieth Gate.wav
     Пиковый уровень 97.7 %
     Качество диапазона 100.0 %
     CRC теста 06664D0A
     CRC копии 06664D0A
     Копирование... OK
Ошибок не произошло
AccurateRip: сводка
Трек  1  нет в базе данных
Трек  2  нет в базе данных
Трек  3  нет в базе данных
Трек  4  нет в базе данных
Трек  5  нет в базе данных
Трек  6  нет в базе данных
Трек  7  нет в базе данных
Трек  8  нет в базе данных
Трек  9  нет в базе данных
Трек 10  нет в базе данных
Трек 11  нет в базе данных
Трек 12  нет в базе данных
Трек 13  нет в базе данных
Трек 14  нет в базе данных
Трек 15  нет в базе данных
Трек 16  нет в базе данных
Трек 17  нет в базе данных
Трек 18  нет в базе данных
Трек 19  нет в базе данных
Ни одного трека нет в базе AccurateRip
Конец отчёта

Martin Bowes - voice, electronics
Garry Cox - guitar, keyboards, electronics
Recorded at ABS Brussels, 1988
Mixed by Ludo Camberlin
Produced by Bowes/Cox/Camberlin
Remastered by Martin Bowes
At the Cage, Coventry, England, 2007
Lyrics: M. Bowes
Music: Bowes/Cox
Front cover art by Terra graphics
Original release on Antler Records, Belgium, 1988
Bonus tracks:
12-14 from - Haydn (or mine) 12" - 1988
15-18 from Turn to Gold 12" maxi - 1989*
19 from - Haydn (the final sessions) 12" - 1989
*With Paul Tyers - additional keyboards
& Bob Oliver - additional percussion
for the memory of Samanatha
”The depth and soul-searching quality of the forty-nine truths determines success or failure.
When the ritualist can say all forty-nine of these statements truthfully, the fiftieth gate will open.”

The fifty gates of Binah
Правила, инструкции, FAQ!!!
Торрент  Добавлен [26 июн 2020, 20:33] Скачать торрент Магнет ссылка
Скачать торрент
[ Размер 40.55 КБ / Просмотров 11 ]

Статус
Проверен 
 
Размер  495.32 МБ
Приватный: Нет (DHT включён)
.torrent скачан  0
 


     Отправить личное сообщение
   
Страница 1 из 1
Показать сообщения за:  Поле сортировки  
Начать новую тему Ответить на тему


Сейчас этот форум просматривают: нет зарегистрированных пользователей и гости: 0


Вы не можете начинать темы
Вы не можете отвечать на сообщения
Вы не можете редактировать свои сообщения
Вы не можете удалять свои сообщения
Вы не можете добавлять вложения

Перейти:  
cron