Начать новую тему Ответить на тему
Статистика раздачи
Размер: 2.14 ГБ | Добавлен: 26 июн 2020, 17:33 | Скачали: 0
Сидеров: 0  [0 байт/сек]    Личеров: 0  [0 байт/сек]
Пред. тема | След. тема 

Автор
Сообщение

СообщениеДобавлено: 26 июн 2020, 17:33 

Ответить с цитатой 

Ministry Of Truth - Дискография (2007-2011)


Жанр: Darkwave
Производитель диска: Россия
Годы издания дисков: 2007-2011
Издатель (лейбл): no head records
Страна: Россия
Аудио кодек: FLAC
Тип рипа: tracks+.cue, image+.cue
Битрейт аудио: lossless
Продолжительность: 05:13:14
Источник (релизер): djdirty
Наличие сканов в содержимом раздачи: да
>>>MP3 320 kbps здесь<<<
>>>live DVD bootleg здесь<<<
Продолжительность: 17:48
01. Emotions (5:17)
02. Father (5:17)
03. Timely Death (7:15)
Personnel:
Minister Of Sounds - music, synthetic structures, acoustic guitars and background vocal
Minister Of Speech - lyrics and main voice
Код:
Exact Audio Copy V0.99 prebeta 5 from 4. May 2009
Отчёт EAC об извлечении, выполненном 1. декабря 2009, 16:00
ministry of truth / ministry of truth ep
Дисковод: TEAC    DV-516GA   Adapter: 4  ID: 2
Режим чтения                 : Достоверность
Использование точного потока : Да
Отключение кэша аудио        : Да
Использование указателей C2  : Нет
Коррекция смещения при чтении                     : 6
Способность читать области Lead-in и Lead-out     : Нет
Заполнение пропущенных сэмплов тишиной            : Да
Удаление блоков с тишиной в начале и конце        : Нет
При вычислениях CRC использовались нулевые сэмплы : Да
Интерфейс                                         : Встроенный Win32-интерфейс для Win NT/2000
Обработка зазоров                                 : Добавлено к предыдущему треку
Выходной формат          : Пользовательский кодировщик
Выбранный битрейт        : 1024 kBit/s
Качество                 : Высокий
Добавление ID3-тэга      : Да
Утилита сжатия           : C:\Program Files\FLAC\flac.exe
Дополнительные параметры : -8 -V -T "ARTIST=%a" -T "TITLE=%t" -T "ALBUM=%g" -T "DATE=%y" -T "TRACKNUMBER=%n" -T "GENRE=%m" -T "COMMENT=EAC FLAC -8" %s
TOC извлечённого CD
     Трек |   Старт  | Длительность | Начальный сектор | Конечный сектор
    ---------------------------------------------------------------------
       1  |  0:00.00 |    5:17.00   |           0      |      23774
       2  |  5:17.00 |    5:17.00   |       23775      |      47549
       3  | 10:34.00 |    7:15.00   |       47550      |      80174
Трек  1
     Имя файла C:\Documents and Settings\Мои документы\MINISTRY OF TRUTH FLAC\ministry of truth ep (2007)\01 - emotions.wav
     Длина предзазора  0:00:02.00
     Пиковый уровень 96.5 %
     Качество трека 100.0 %
     CRC теста 02E11C38
     CRC копии 02E11C38
     Трек не обнаружен в базе AccurateRip
     Копирование... OK
Трек  2
     Имя файла C:\Documents and Settings\Мои документы\MINISTRY OF TRUTH FLAC\ministry of truth ep (2007)\02 - father.wav
     Пиковый уровень 96.5 %
     Качество трека 100.0 %
     CRC теста F0667E55
     CRC копии F0667E55
     Трек не обнаружен в базе AccurateRip
     Копирование... OK
Трек  3
     Имя файла C:\Documents and Settings\Мои документы\MINISTRY OF TRUTH FLAC\ministry of truth ep (2007)\03 - timely death.wav
     Пиковый уровень 96.5 %
     Качество трека 99.9 %
     CRC теста CE53C611
     CRC копии CE53C611
     Трек не обнаружен в базе AccurateRip
     Копирование... OK
Ни одного трека нет в базе AccurateRip
Ошибок не произошло
Конец отчёта
Код:
REM GENRE Darkwave
REM DATE 2007
REM DISCID 1E042D03
REM COMMENT "ExactAudioCopy v0.99pb5"
PERFORMER "ministry of truth"
TITLE "ministry of truth ep"
FILE "01 - emotions.wav" WAVE
  TRACK 01 AUDIO
    TITLE "emotions"
    PERFORMER "ministry of truth"
    FLAGS DCP
    INDEX 01 00:00:00
FILE "02 - father.wav" WAVE
  TRACK 02 AUDIO
    TITLE "father"
    PERFORMER "ministry of truth"
    FLAGS DCP
    INDEX 01 00:00:00
FILE "03 - timely death.wav" WAVE
  TRACK 03 AUDIO
    TITLE "timely death"
    PERFORMER "ministry of truth"
    FLAGS DCP
    INDEX 01 00:00:00
#777Продолжительность: 25:00
01. Emotions 2 (8:05)
02. Night Of The Soul (5:34)
03. Широк Человек (5:54)
04. Father (He Died) - Endraum Version (5:28)
Personnel:
Minister Of Speech - lyrics and lead voice
Minister Of Harmony - lead and background vocals
Minister Of Sounds - music, synthetic structures, acoustic and electric guitars, background vocal
Код:
Exact Audio Copy V0.99 prebeta 5 from 4. May 2009
Отчёт EAC об извлечении, выполненном 1. декабря 2009, 16:13
ministry of truth / night of the soul ep
Дисковод: TEAC    DV-516GA   Adapter: 4  ID: 2
Режим чтения                 : Достоверность
Использование точного потока : Да
Отключение кэша аудио        : Да
Использование указателей C2  : Нет
Коррекция смещения при чтении                     : 6
Способность читать области Lead-in и Lead-out     : Нет
Заполнение пропущенных сэмплов тишиной            : Да
Удаление блоков с тишиной в начале и конце        : Нет
При вычислениях CRC использовались нулевые сэмплы : Да
Интерфейс                                         : Встроенный Win32-интерфейс для Win NT/2000
Обработка зазоров                                 : Добавлено к предыдущему треку
Выходной формат          : Пользовательский кодировщик
Выбранный битрейт        : 1024 kBit/s
Качество                 : Высокий
Добавление ID3-тэга      : Да
Утилита сжатия           : C:\Program Files\FLAC\flac.exe
Дополнительные параметры : -8 -V -T "ARTIST=%a" -T "TITLE=%t" -T "ALBUM=%g" -T "DATE=%y" -T "TRACKNUMBER=%n" -T "GENRE=%m" -T "COMMENT=EAC FLAC -8" %s
TOC извлечённого CD
     Трек |   Старт  | Длительность | Начальный сектор | Конечный сектор
    ---------------------------------------------------------------------
       1  |  0:00.00 |    8:05.00   |           0      |      36374
       2  |  8:05.00 |    5:34.00   |       36375      |      61424
       3  | 13:39.00 |    5:54.00   |       61425      |      87974
       4  | 19:33.00 |    5:28.00   |       87975      |     112574
Трек  1
     Имя файла C:\Documents and Settings\Мои документы\MINISTRY OF TRUTH FLAC\night of the soul ep (2008)\01 - emotions 2.wav
     Длина предзазора  0:00:02.00
     Пиковый уровень 96.8 %
     Качество трека 100.0 %
     CRC теста 5AD4C99E
     CRC копии 5AD4C99E
     Трек не обнаружен в базе AccurateRip
     Копирование... OK
Трек  2
     Имя файла C:\Documents and Settings\Мои документы\MINISTRY OF TRUTH FLAC\night of the soul ep (2008)\02 - night of the soul.wav
     Пиковый уровень 96.8 %
     Качество трека 100.0 %
     CRC теста 0655F607
     CRC копии 0655F607
     Трек не обнаружен в базе AccurateRip
     Копирование... OK
Трек  3
     Имя файла C:\Documents and Settings\Мои документы\MINISTRY OF TRUTH FLAC\night of the soul ep (2008)\03 - широк человек.wav
     Пиковый уровень 96.8 %
     Качество трека 99.9 %
     CRC теста 38190E28
     CRC копии 38190E28
     Трек не обнаружен в базе AccurateRip
     Копирование... OK
Трек  4
     Имя файла C:\Documents and Settings\Мои документы\MINISTRY OF TRUTH FLAC\night of the soul ep (2008)\04 - father (fe died) - endraum version.wav
     Пиковый уровень 96.8 %
     Качество трека 100.0 %
     CRC теста 4C4D6E3A
     CRC копии 4C4D6E3A
     Трек не обнаружен в базе AccurateRip
     Копирование... OK
Ни одного трека нет в базе AccurateRip
Ошибок не произошло
Конец отчёта
Код:
REM GENRE Darkwave
REM DATE 2008
REM DISCID 2E05DD04
REM COMMENT "ExactAudioCopy v0.99pb5"
PERFORMER "ministry of truth"
TITLE "night of the soul ep"
FILE "01 - emotions 2.wav" WAVE
  TRACK 01 AUDIO
    TITLE "emotions 2"
    PERFORMER "ministry of truth"
    FLAGS DCP
    INDEX 01 00:00:00
FILE "02 - night of the soul.wav" WAVE
  TRACK 02 AUDIO
    TITLE "night of the soul"
    PERFORMER "ministry of truth"
    FLAGS DCP
    INDEX 01 00:00:00
FILE "03 - широк человек.wav" WAVE
  TRACK 03 AUDIO
    TITLE "широк человек"
    PERFORMER "ministry of truth"
    FLAGS DCP
    INDEX 01 00:00:00
FILE "04 - father (fe died) - endraum version.wav" WAVE
  TRACK 04 AUDIO
    TITLE "father (fe died) - endraum version"
    PERFORMER "ministry of truth"
    FLAGS DCP
    INDEX 01 00:00:00
#777Продолжительность: 33:40
01. Something, Somewhere (6:04)
02. Justify (8:53)
03. Love Like Blood (6:58)
04. Something, Somewhere - dj dirty version (7:25)
05. Emotions - neoclassic version by Sterytale (4:20)
Personnel:
Minister Of Speech - tenor
Minister Of Harmony - soprano
Minister Of Culture - baritone
Minister Of Sounds - acoustic and electric guitars, electric bass, synthetic structures
Код:
Exact Audio Copy V0.99 prebeta 5 from 4. May 2009
Отчёт EAC об извлечении, выполненном 1. декабря 2009, 16:25
ministry of truth / something, somewhere ep
Дисковод: TEAC    DV-516GA   Adapter: 4  ID: 2
Режим чтения                 : Достоверность
Использование точного потока : Да
Отключение кэша аудио        : Да
Использование указателей C2  : Нет
Коррекция смещения при чтении                     : 6
Способность читать области Lead-in и Lead-out     : Нет
Заполнение пропущенных сэмплов тишиной            : Да
Удаление блоков с тишиной в начале и конце        : Нет
При вычислениях CRC использовались нулевые сэмплы : Да
Интерфейс                                         : Встроенный Win32-интерфейс для Win NT/2000
Обработка зазоров                                 : Добавлено к предыдущему треку
Выходной формат          : Пользовательский кодировщик
Выбранный битрейт        : 1024 kBit/s
Качество                 : Высокий
Добавление ID3-тэга      : Да
Утилита сжатия           : C:\Program Files\FLAC\flac.exe
Дополнительные параметры : -8 -V -T "ARTIST=%a" -T "TITLE=%t" -T "ALBUM=%g" -T "DATE=%y" -T "TRACKNUMBER=%n" -T "GENRE=%m" -T "COMMENT=EAC FLAC -8" %s
TOC извлечённого CD
     Трек |   Старт  | Длительность | Начальный сектор | Конечный сектор
    ---------------------------------------------------------------------
       1  |  0:00.00 |    6:03.43   |           0      |      27267
       2  |  6:03.43 |    8:53.00   |       27268      |      67242
       3  | 14:56.43 |    6:58.24   |       67243      |      98616
       4  | 21:54.67 |    7:25.37   |       98617      |     132028
       5  | 29:20.29 |    4:20.12   |      132029      |     151540
Трек  1
     Имя файла C:\Documents and Settings\Мои документы\MINISTRY OF TRUTH FLAC\something, somewhere ep (2009)\01 - something, somewhere.wav
     Длина предзазора  0:00:02.00
     Пиковый уровень 96.6 %
     Качество трека 99.9 %
     CRC теста F926CEF3
     CRC копии F926CEF3
     Трек не обнаружен в базе AccurateRip
     Копирование... OK
Трек  2
     Имя файла C:\Documents and Settings\Мои документы\MINISTRY OF TRUTH FLAC\something, somewhere ep (2009)\02 - justify.wav
     Длина предзазора  0:00:02.00
     Пиковый уровень 96.6 %
     Качество трека 100.0 %
     CRC теста F0D20D4C
     CRC копии F0D20D4C
     Трек не обнаружен в базе AccurateRip
     Копирование... OK
Трек  3
     Имя файла C:\Documents and Settings\Мои документы\MINISTRY OF TRUTH FLAC\something, somewhere ep (2009)\03 - love like blood.wav
     Длина предзазора  0:00:02.00
     Пиковый уровень 96.6 %
     Качество трека 100.0 %
     CRC теста 2CB27098
     CRC копии 2CB27098
     Трек не обнаружен в базе AccurateRip
     Копирование... OK
Трек  4
     Имя файла C:\Documents and Settings\Мои документы\MINISTRY OF TRUTH FLAC\something, somewhere ep (2009)\04 - something, somewhere (dj dirty version).wav
     Длина предзазора  0:00:02.00
     Пиковый уровень 96.6 %
     Качество трека 100.0 %
     CRC теста 7D21A246
     CRC копии 7D21A246
     Трек не обнаружен в базе AccurateRip
     Копирование... OK
Трек  5
     Имя файла C:\Documents and Settings\Мои документы\MINISTRY OF TRUTH FLAC\something, somewhere ep (2009)\05 - emotions (neoclassic version by sterytale).wav
     Длина предзазора  0:00:02.00
     Пиковый уровень 96.6 %
     Качество трека 100.0 %
     CRC теста 1CF39923
     CRC копии 1CF39923
     Трек не обнаружен в базе AccurateRip
     Копирование... OK
Ни одного трека нет в базе AccurateRip
Ошибок не произошло
Конец отчёта
Код:
REM GENRE Darkwave
REM DATE 2009
REM DISCID 4407E405
REM COMMENT "ExactAudioCopy v0.99pb5"
PERFORMER "ministry of truth"
TITLE "something, somewhere ep"
FILE "01 - something, somewhere.wav" WAVE
  TRACK 01 AUDIO
    TITLE "something, somewhere"
    PERFORMER "ministry of truth"
    FLAGS DCP
    INDEX 01 00:00:00
  TRACK 02 AUDIO
    TITLE "justify"
    PERFORMER "ministry of truth"
    FLAGS DCP
    INDEX 00 06:01:43
FILE "02 - justify.wav" WAVE
    INDEX 01 00:00:00
  TRACK 03 AUDIO
    TITLE "love like blood"
    PERFORMER "ministry of truth"
    FLAGS DCP
    INDEX 00 08:51:00
FILE "03 - love like blood.wav" WAVE
    INDEX 01 00:00:00
  TRACK 04 AUDIO
    TITLE "something, somewhere (dj dirty version)"
    PERFORMER "ministry of truth"
    FLAGS DCP
    INDEX 00 06:56:24
FILE "04 - something, somewhere (dj dirty version).wav" WAVE
    INDEX 01 00:00:00
  TRACK 05 AUDIO
    TITLE "emotions (neoclassic version by sterytale)"
    PERFORMER "ministry of truth"
    FLAGS DCP
    INDEX 00 07:23:37
FILE "05 - emotions (neoclassic version by sterytale).wav" WAVE
    INDEX 01 00:00:00
#777Продолжительность: 28:56
01. Hidden Track / Слепой (7:11)
02. Широк Человек (6:00)
03. Ничья Река (8:25)
04. Широк Человек (full lyrics extended remix by dj dirty) (7:18)
Персонал:
Minister Of Sounds - акустическая и электрическая гитары, бас, синтезаторы, голос
Minister Of Harmony - вокал
Minister Of Culture - бэк-вокал
голос в "Широк Человек" - Minister Of Speech
Код:
Exact Audio Copy V0.99 prebeta 5 from 4. May 2009
Отчёт EAC об извлечении, выполненном 8. марта 2010, 14:13
ministry of truth / слепой ep
Дисковод: TEAC    DV-516GA   Adapter: 4  ID: 2
Режим чтения                 : Достоверность
Использование точного потока : Да
Отключение кэша аудио        : Да
Использование указателей C2  : Нет
Коррекция смещения при чтении                     : 6
Способность читать области Lead-in и Lead-out     : Нет
Заполнение пропущенных сэмплов тишиной            : Да
Удаление блоков с тишиной в начале и конце        : Нет
При вычислениях CRC использовались нулевые сэмплы : Да
Интерфейс                                         : Встроенный Win32-интерфейс для Win NT/2000
Выходной формат          : Пользовательский кодировщик
Выбранный битрейт        : 1024 kBit/s
Качество                 : Высокий
Добавление ID3-тэга      : Да
Утилита сжатия           : C:\Program Files\FLAC\flac.exe
Дополнительные параметры : -8 -V -T "ARTIST=%a" -T "TITLE=%t" -T "ALBUM=%g" -T "DATE=%y" -T "TRACKNUMBER=%n" -T "GENRE=%m" -T "COMMENT=EAC FLAC -8" %s
TOC извлечённого CD
     Трек |   Старт  | Длительность | Начальный сектор | Конечный сектор
    ---------------------------------------------------------------------
       1  |  1:27.00 |    5:44.63   |        6525      |      32387
       2  |  7:11.63 |    6:01.00   |       32388      |      59462
       3  | 13:12.63 |    8:25.45   |       59463      |      97382
       4  | 21:38.33 |    7:18.11   |       97383      |     130243
Характеристики диапазона извлечения и сообщения об ошибках
Выбранный диапазон
     Имя файла C:\Documents and Settings\Мои документы\Downloads\MINISTRY OF TRUTH FLAC\слепой ep (2010)\ministry of truth - слепой ep.wav
     Пиковый уровень 96.6 %
     Качество диапазона 100.0 %
     CRC теста 36D5A398
     CRC копии 36D5A398
     Копирование... OK
Ошибок не произошло
AccurateRip: сводка
Трек  1  нет в базе данных
Трек  2  нет в базе данных
Трек  3  нет в базе данных
Трек  4  нет в базе данных
Ни одного трека нет в базе AccurateRip
Конец отчёта
Код:
REM DATE 2010
REM DISCID 33067104
REM COMMENT "ExactAudioCopy v0.99pb5"
PERFORMER "ministry of truth"
TITLE "слепой ep"
FILE "ministry of truth - слепой ep.flac" WAVE
  TRACK 01 AUDIO
    TITLE "hidden track / слепой"
    PERFORMER "ministry of truth"
    INDEX 00 00:00:00
    INDEX 01 01:27:00
  TRACK 02 AUDIO
    TITLE "широк человек"
    PERFORMER "ministry of truth"
    INDEX 01 07:11:63
  TRACK 03 AUDIO
    TITLE "ничья река"
    PERFORMER "ministry of truth"
    INDEX 01 13:12:63
  TRACK 04 AUDIO
    TITLE "широк человек (full lyrics extended remix by dj dirty)"
    PERFORMER "ministry of truth"
    INDEX 01 21:38:33
#777Продолжительность: 01:01:05
01. Hey You (3:37)
02. Apres Moi Le Deluge (5:13)
03. Emotions (4:54)
04. Pocketsize God (5:07)
05. Knock On The Door (4:31)
06. Father (5:20)
07. Emotions 2 (8:00)
08. One More Try (6:03)
09. Peel (4:28)
10. Night Of The Soul (5:38)
11. Emotions Epilogue (8:07)
Personnel:
Minister Of Sounds - synthetic structures, acoustic and electric guitars, electric bass
Minister Of Harmony - soprano
Minister Of Culture - baritone
Minister Of Speech - tenor
SPECIAL GUEST Anton Brejestovski - lead voice (02 & 09)
Код:
Exact Audio Copy V0.99 prebeta 5 from 4. May 2009
Отчёт EAC об извлечении, выполненном 31. мая 2010, 23:57
ministry of truth / pocketsize god
Дисковод: TEAC    DV-516GA   Adapter: 4  ID: 2
Режим чтения                 : Достоверность
Использование точного потока : Да
Отключение кэша аудио        : Да
Использование указателей C2  : Нет
Коррекция смещения при чтении                     : 6
Способность читать области Lead-in и Lead-out     : Нет
Заполнение пропущенных сэмплов тишиной            : Да
Удаление блоков с тишиной в начале и конце        : Нет
При вычислениях CRC использовались нулевые сэмплы : Да
Интерфейс                                         : Встроенный Win32-интерфейс для Win NT/2000
Выходной формат          : Пользовательский кодировщик
Выбранный битрейт        : 1024 kBit/s
Качество                 : Высокий
Добавление ID3-тэга      : Да
Утилита сжатия           : C:\Program Files\FLAC\flac.exe
Дополнительные параметры : -8 -V -T "ARTIST=%a" -T "TITLE=%t" -T "ALBUM=%g" -T "DATE=%y" -T "TRACKNUMBER=%n" -T "GENRE=%m" -T "COMMENT=EAC FLAC -8" %s
TOC извлечённого CD
     Трек |   Старт  | Длительность | Начальный сектор | Конечный сектор
    ---------------------------------------------------------------------
       1  |  0:00.00 |    3:38.00   |           0      |      16349
       2  |  3:38.00 |    5:13.30   |       16350      |      39854
       3  |  8:51.30 |    4:54.60   |       39855      |      61964
       4  | 13:46.15 |    5:07.38   |       61965      |      85027
       5  | 18:53.53 |    4:31.46   |       85028      |     105398
       6  | 23:25.24 |    5:21.00   |      105399      |     129473
       7  | 28:46.24 |    8:00.47   |      129474      |     165520
       8  | 36:46.71 |    6:03.60   |      165521      |     192805
       9  | 42:50.56 |    4:28.25   |      192806      |     212930
      10  | 47:19.06 |    5:39.06   |      212931      |     238361
      11  | 52:58.12 |    8:08.00   |      238362      |     274961
Характеристики диапазона извлечения и сообщения об ошибках
Выбранный диапазон
     Имя файла C:\Documents and Settings\Мои документы\Downloads\MINISTRY OF TRUTH FLAC\pocketsize god (2010)\ministry of truth - pocketsize god.wav
     Пиковый уровень 99.8 %
     Качество диапазона 100.0 %
     CRC теста B7189592
     CRC копии B7189592
     Копирование... OK
Ошибок не произошло
AccurateRip: сводка
Трек  1  нет в базе данных
Трек  2  нет в базе данных
Трек  3  нет в базе данных
Трек  4  нет в базе данных
Трек  5  нет в базе данных
Трек  6  нет в базе данных
Трек  7  нет в базе данных
Трек  8  нет в базе данных
Трек  9  нет в базе данных
Трек 10  нет в базе данных
Трек 11  нет в базе данных
Ни одного трека нет в базе AccurateRip
Конец отчёта
Код:
REM DATE 2010
REM DISCID 820E520B
REM COMMENT "ExactAudioCopy v0.99pb5"
PERFORMER "ministry of truth"
TITLE "pocketsize god"
FILE "ministry of truth - pocketsize god.flac" WAVE
  TRACK 01 AUDIO
    TITLE "hey you"
    PERFORMER "ministry of truth"
    INDEX 01 00:00:00
  TRACK 02 AUDIO
    TITLE "apres moi le deluge"
    PERFORMER "ministry of truth"
    INDEX 01 03:38:00
  TRACK 03 AUDIO
    TITLE "emotions"
    PERFORMER "ministry of truth"
    INDEX 00 08:49:30
    INDEX 01 08:51:30
  TRACK 04 AUDIO
    TITLE "pocketsize god"
    PERFORMER "ministry of truth"
    INDEX 01 13:46:15
  TRACK 05 AUDIO
    TITLE "knock on the door"
    PERFORMER "ministry of truth"
    INDEX 01 18:53:53
  TRACK 06 AUDIO
    TITLE "father"
    PERFORMER "ministry of truth"
    INDEX 01 23:25:24
  TRACK 07 AUDIO
    TITLE "emotions 2"
    PERFORMER "ministry of truth"
    INDEX 00 28:41:24
    INDEX 01 28:46:24
  TRACK 08 AUDIO
    TITLE "one more try"
    PERFORMER "ministry of truth"
    INDEX 00 36:44:71
    INDEX 01 36:46:71
  TRACK 09 AUDIO
    TITLE "peel"
    PERFORMER "ministry of truth"
    INDEX 01 42:50:56
  TRACK 10 AUDIO
    TITLE "night of the soul"
    PERFORMER "ministry of truth"
    INDEX 00 47:17:06
    INDEX 01 47:19:06
  TRACK 11 AUDIO
    TITLE "emotions epilogue"
    PERFORMER "ministry of truth"
    INDEX 00 52:55:12
    INDEX 01 52:58:12
#777Продолжительность: 52:45
01. Peel (4:28)
02. Pocketsize God (5:08)
03. One More Try (6:26)
04. Father (5:23)
05. Storekeeper (1:51)
06. Something, Somewhere (live) (6:08)
07. Aut Caesar, Aut Nihil (live) (7:36)
08. Peel (Last Phase remix) (4:12)
09. Широк Человек (Feamale Project remix) (5:51)
10. silence 10 (0:21)
11. silence 11 (0:21)
12. hidden track (4:48)
13. silence 13 (0:05)
Personnel:
Minister Of Sounds - synthetic structures, acoustic and electric guitars, electric bass
Minister Of Harmony - soprano
Minister Of Culture - baritone
Minister Of Speech - tenor
Код:
Exact Audio Copy V0.99 prebeta 5 from 4. May 2009
Отчёт EAC об извлечении, выполненном 31. мая 2010, 23:41
ministry of truth / peel
Дисковод: TEAC    DV-516GA   Adapter: 4  ID: 2
Режим чтения                 : Достоверность
Использование точного потока : Да
Отключение кэша аудио        : Да
Использование указателей C2  : Нет
Коррекция смещения при чтении                     : 6
Способность читать области Lead-in и Lead-out     : Нет
Заполнение пропущенных сэмплов тишиной            : Да
Удаление блоков с тишиной в начале и конце        : Нет
При вычислениях CRC использовались нулевые сэмплы : Да
Интерфейс                                         : Встроенный Win32-интерфейс для Win NT/2000
Выходной формат          : Пользовательский кодировщик
Выбранный битрейт        : 1024 kBit/s
Качество                 : Высокий
Добавление ID3-тэга      : Да
Утилита сжатия           : C:\Program Files\FLAC\flac.exe
Дополнительные параметры : -8 -V -T "ARTIST=%a" -T "TITLE=%t" -T "ALBUM=%g" -T "DATE=%y" -T "TRACKNUMBER=%n" -T "GENRE=%m" -T "COMMENT=EAC FLAC -8" %s
TOC извлечённого CD
     Трек |   Старт  | Длительность | Начальный сектор | Конечный сектор
    ---------------------------------------------------------------------
       1  |  0:02.00 |    4:28.45   |         150      |      20294
       2  |  4:30.45 |    5:08.55   |       20295      |      43449
       3  |  9:39.25 |    6:26.45   |       43450      |      72444
       4  | 16:05.70 |    5:23.38   |       72445      |      96707
       5  | 21:29.33 |    1:51.51   |       96708      |     105083
       6  | 23:21.09 |    6:08.35   |      105084      |     132718
       7  | 29:29.44 |    7:36.65   |      132719      |     166983
       8  | 37:06.34 |    4:12.16   |      166984      |     185899
       9  | 41:18.50 |    5:51.48   |      185900      |     212272
      10  | 47:10.23 |    0:22.01   |      212273      |     213923
      11  | 47:32.24 |    0:22.01   |      213924      |     215574
      12  | 47:54.25 |    4:48.36   |      215575      |     237210
      13  | 52:42.61 |    0:06.00   |      237211      |     237660
Характеристики диапазона извлечения и сообщения об ошибках
Выбранный диапазон
     Имя файла C:\Documents and Settings\Мои документы\Downloads\MINISTRY OF TRUTH FLAC\peel (2010)\ministry of truth - peel.wav
     Пиковый уровень 99.0 %
     Качество диапазона 100.0 %
     CRC теста C5F45D30
     CRC копии C5F45D30
     Копирование... OK
Ошибок не произошло
AccurateRip: сводка
Трек  1  нет в базе данных
Трек  2  нет в базе данных
Трек  3  нет в базе данных
Трек  4  нет в базе данных
Трек  5  нет в базе данных
Трек  6  нет в базе данных
Трек  7  нет в базе данных
Трек  8  нет в базе данных
Трек  9  нет в базе данных
Трек 10  нет в базе данных
Трек 11  нет в базе данных
Трек 12  нет в базе данных
Трек 13  нет в базе данных
Ни одного трека нет в базе AccurateRip
Конец отчёта
Код:
REM DATE 2010
REM DISCID BB0C5E0D
REM COMMENT "ExactAudioCopy v0.99pb5"
PERFORMER "ministry of truth"
TITLE "peel"
FILE "ministry of truth - peel.flac" WAVE
  TRACK 01 AUDIO
    TITLE "peel"
    PERFORMER "ministry of truth"
    INDEX 00 00:00:00
    INDEX 01 00:02:00
  TRACK 02 AUDIO
    TITLE "pocketsize god"
    PERFORMER "ministry of truth"
    INDEX 00 04:28:45
    INDEX 01 04:30:45
  TRACK 03 AUDIO
    TITLE "one more try"
    PERFORMER "ministry of truth"
    INDEX 00 09:37:25
    INDEX 01 09:39:25
  TRACK 04 AUDIO
    TITLE "father"
    PERFORMER "ministry of truth"
    INDEX 00 16:03:70
    INDEX 01 16:05:70
  TRACK 05 AUDIO
    TITLE "storekeeper"
    PERFORMER "ministry of truth"
    INDEX 00 21:27:33
    INDEX 01 21:29:33
  TRACK 06 AUDIO
    TITLE "something, somewhere (live)"
    PERFORMER "ministry of truth"
    INDEX 00 23:16:09
    INDEX 01 23:21:09
  TRACK 07 AUDIO
    TITLE "aut caesar, aut nihil (live)"
    PERFORMER "ministry of truth"
    INDEX 01 29:29:44
  TRACK 08 AUDIO
    TITLE "peel (last phase mix)"
    PERFORMER "ministry of truth"
    INDEX 00 36:33:34
    INDEX 01 37:06:34
  TRACK 09 AUDIO
    TITLE "широк человек (feamale project mix)"
    PERFORMER "ministry of truth"
    INDEX 00 41:16:50
    INDEX 01 41:18:50
  TRACK 10 AUDIO
    TITLE "silence 10"
    PERFORMER "ministry of truth"
    INDEX 01 47:10:23
  TRACK 11 AUDIO
    TITLE "silence 11"
    PERFORMER "ministry of truth"
    INDEX 01 47:32:24
  TRACK 12 AUDIO
    TITLE "hidden track"
    PERFORMER "ministry of truth"
    INDEX 01 47:54:25
  TRACK 13 AUDIO
    TITLE "silence 13"
    PERFORMER "ministry of truth"
    INDEX 00 48:16:26
    INDEX 01 52:42:61
#777Продолжительность: 20:37
01. Emotions (20:37)
Personnel:
Minister Of Sounds - synthetic structures, acoustic guitars
Minister Of Harmony - soprano
Minister Of Culture - baritone
Minister Of Speech - tenor
Код:
Exact Audio Copy V0.99 prebeta 5 from 4. May 2009
Отчёт EAC об извлечении, выполненном 9. октября 2010, 12:03
ministry of truth / emotions ep
Дисковод: TEAC    DV-516GA   Adapter: 4  ID: 2
Режим чтения                 : Достоверность
Использование точного потока : Да
Отключение кэша аудио        : Да
Использование указателей C2  : Нет
Коррекция смещения при чтении                     : 6
Способность читать области Lead-in и Lead-out     : Нет
Заполнение пропущенных сэмплов тишиной            : Да
Удаление блоков с тишиной в начале и конце        : Нет
При вычислениях CRC использовались нулевые сэмплы : Да
Интерфейс                                         : Встроенный Win32-интерфейс для Win NT/2000
Выходной формат          : Пользовательский кодировщик
Выбранный битрейт        : 1024 kBit/s
Качество                 : Высокий
Добавление ID3-тэга      : Нет
Утилита сжатия           : C:\Program Files\FLAC\flac.exe
Дополнительные параметры : -8 -V -T "ARTIST=%a" -T "TITLE=%t" -T "ALBUM=%g" -T "DATE=%y" -T "TRACKNUMBER=%n" -T "GENRE=%m" -T "COMMENT=EAC FLAC -8" %s
TOC извлечённого CD
     Трек |   Старт  | Длительность | Начальный сектор | Конечный сектор
    ---------------------------------------------------------------------
       1  |  0:02.00 |   20:37.11   |         150      |      92935
Характеристики диапазона извлечения и сообщения об ошибках
Выбранный диапазон
     Имя файла F:\ПуЗик\Downloads\MINISTRY OF TRUTH FLAC\emotions ep (2010)\ministry of truth - emotions ep.wav
     Пиковый уровень 100.0 %
     Качество диапазона 100.0 %
     CRC теста 5A757942
     CRC копии 5A757942
     Копирование... OK
Ошибок не произошло
AccurateRip: сводка
Трек  1  нет в базе данных
Ни одного трека нет в базе AccurateRip
Конец отчёта
Код:
REM DATE 2010
REM DISCID 0404D501
REM COMMENT "ExactAudioCopy v0.99pb5"
PERFORMER "ministry of truth"
TITLE "emotions ep"
FILE "ministry of truth - emotions ep.flac" WAVE
  TRACK 01 AUDIO
    TITLE "emotions"
    PERFORMER "ministry of truth"
    INDEX 00 00:00:00
    INDEX 01 00:02:00
#777Продолжительность: 33:19
01. Завещание Старика (4:04)
02. Твари Англии (4:00)
03. Скотизм 1 (3:15)
04. Бой Под Коровником (5:18)
05. Я Буду Работать Еще Упорней (5:00)
06. Товарищ Наполеон (4:54)
07. Скотизм 2 (3:43)
08. Твари Англии - Финал (3:02)
Personnel:
Minister Of Sounds - synthetic structures, acoustic and electric guitars, electric bass, vocal (tenor), voice
Minister Of Harmony - vocal (soprano)
Minister Of Culture - vocal (baritone)
Minister Of Speech - voice
special guest:
Count Ash - vocal (bass)
Код:
Exact Audio Copy V1.0 beta 3 from 29. August 2011
Отчёт EAC об извлечении, выполненном 29. августа 2012, 13:48
ministry of truth / скотный двор
Дисковод: ASUS    SDRW-0806T-D   Adapter: 1  ID: 0
Режим чтения                 : Достоверность
Использование точного потока : Да
Отключение кэша аудио        : Да
Использование указателей C2  : Нет
Коррекция смещения при чтении                     : 704
Способность читать области Lead-in и Lead-out     : Нет
Заполнение пропущенных сэмплов тишиной            : Да
Удаление блоков с тишиной в начале и конце        : Нет
При вычислениях CRC использовались нулевые сэмплы : Да
Интерфейс                                         : Встроенный Win32-интерфейс для Win NT/2000
Выходной формат          : Пользовательский кодировщик
Выбранный битрейт        : 1024 kBit/s
Качество                 : Высокий
Добавление ID3-тега      : Нет
Утилита сжатия           : C:\Program Files\FLAC\flac.exe
TOC извлечённого CD
     Трек |   Старт  | Длительность | Начальный сектор | Конечный сектор
    ---------------------------------------------------------------------
       1  |  0:00.00 |    4:38.00   |           0      |      20849
       2  |  4:38.00 |    3:26.00   |       20850      |      36299
       3  |  8:04.00 |    3:15.13   |       36300      |      50937
       4  | 11:19.13 |    5:18.62   |       50938      |      74849
       5  | 16:38.00 |    5:00.31   |       74850      |      97380
       6  | 21:38.31 |    4:54.57   |       97381      |     119487
       7  | 26:33.13 |    4:17.69   |      119488      |     138831
       8  | 30:51.07 |    2:28.06   |      138832      |     149937
Характеристики диапазона извлечения и сообщения об ошибках
Выбранный диапазон
     Имя файла F:\ПуЗик\Downloads\!МОИ РАЗДАЧИ\!CD-FLAC\MINISTRY OF TRUTH FLAC\скотный двор (2011)\ministry of truth - скотный двор.wav
     Пиковый уровень 100.0 %
     Скорость извлечения 8.1 X
     Качество диапазона 100.0 %
     CRC теста FC195598
     CRC копии FC195598
     Копирование... OK
Ошибок не произошло
Конец отчёта
Код:
REM GENRE Darkwave
REM DATE 2011
REM DISCID 5707CF08
REM COMMENT "ExactAudioCopy v1.0b3"
PERFORMER "ministry of truth"
TITLE "скотный двор"
FILE "ministry of truth - скотный двор.flac" WAVE
  TRACK 01 AUDIO
    TITLE "завещание старика"
    PERFORMER "ministry of truth"
    FLAGS DCP
    INDEX 01 00:00:00
  TRACK 02 AUDIO
    TITLE "твари англии"
    PERFORMER "ministry of truth"
    FLAGS DCP
    INDEX 00 04:04:00
    INDEX 01 04:38:00
  TRACK 03 AUDIO
    TITLE "скотизм 1"
    PERFORMER "ministry of truth"
    FLAGS DCP
    INDEX 01 08:04:00
  TRACK 04 AUDIO
    TITLE "бой под коровником"
    PERFORMER "ministry of truth"
    FLAGS DCP
    INDEX 01 11:19:13
  TRACK 05 AUDIO
    TITLE "я буду работать еще упорней"
    PERFORMER "ministry of truth"
    FLAGS DCP
    INDEX 01 16:38:00
  TRACK 06 AUDIO
    TITLE "товарищ наполеон"
    PERFORMER "ministry of truth"
    FLAGS DCP
    INDEX 01 21:38:31
  TRACK 07 AUDIO
    TITLE "скотизм 2"
    PERFORMER "ministry of truth"
    FLAGS DCP
    INDEX 01 26:33:13
  TRACK 08 AUDIO
    TITLE "твари англии - финал"
    PERFORMER "ministry of truth"
    FLAGS DCP
    INDEX 00 30:17:08
    INDEX 01 30:51:07
#777Продолжительность: 39:57
01. Эй, Вы! (3:36)
02. Aut Caesar, Aut Nihil! (7:00)
03. Троянский Конь (4:17)
04. Praenomen (5:38)
05. Аннушкино Масло (7:27)
06. Aut Caesar, Aut Nihil! (Idefix remix by FLAMMENFORM36) (5:42)
07. Aut Caesar, Aut Nihil! (remixed by SINESTESIA) (6:14)
Персонал:
Minister Of Sounds - электрическая гитара, бас, синтезаторы, голос
Minister Of Harmony - вокал
Minister Of Culture - вокал
Minister Of Speech - голос
Код:
Exact Audio Copy V0.99 prebeta 5 from 4. May 2009
Отчёт EAC об извлечении, выполненном 19. июля 2011, 0:37
ministry of truth / aut caesar, aut nihil! ep
Дисковод: TEAC    DV-516GA   Adapter: 4  ID: 0
Режим чтения                 : Достоверность
Использование точного потока : Да
Отключение кэша аудио        : Да
Использование указателей C2  : Нет
Коррекция смещения при чтении                     : 6
Способность читать области Lead-in и Lead-out     : Нет
Заполнение пропущенных сэмплов тишиной            : Да
Удаление блоков с тишиной в начале и конце        : Нет
При вычислениях CRC использовались нулевые сэмплы : Да
Интерфейс                                         : Встроенный Win32-интерфейс для Win NT/2000
Выходной формат          : Пользовательский кодировщик
Выбранный битрейт        : 1024 kBit/s
Качество                 : Высокий
Добавление ID3-тэга      : Нет
Утилита сжатия           : C:\Program Files\FLAC\flac.exe
Дополнительные параметры : -8 -V -T "ARTIST=%a" -T "TITLE=%t" -T "ALBUM=%g" -T "DATE=%y" -T "TRACKNUMBER=%n" -T "GENRE=%m" -T "COMMENT=EAC FLAC -8" %s
TOC извлечённого CD
     Трек |   Старт  | Длительность | Начальный сектор | Конечный сектор
    ---------------------------------------------------------------------
       1  |  0:00.00 |    3:36.10   |           0      |      16209
       2  |  3:36.10 |    7:00.64   |       16210      |      47773
       3  | 10:36.74 |    4:17.41   |       47774      |      67089
       4  | 14:54.40 |    5:38.45   |       67090      |      92484
       5  | 20:33.10 |    7:27.63   |       92485      |     126072
       6  | 28:00.73 |    5:42.16   |      126073      |     151738
       7  | 33:43.14 |    6:14.47   |      151739      |     179835
Характеристики диапазона извлечения и сообщения об ошибках
Выбранный диапазон
     Имя файла F:\Downloads\MINISTRY OF TRUTH FLAC\aut caesar, aut nihil! ep (2011)\ministry of truth - aut caesar, aut nihil! ep.wav
     Пиковый уровень 97.2 %
     Качество диапазона 100.0 %
     CRC теста 32418F4D
     CRC копии 32418F4D
     Копирование... OK
Ошибок не произошло
AccurateRip: сводка
Трек  1  нет в базе данных
Трек  2  нет в базе данных
Трек  3  нет в базе данных
Трек  4  нет в базе данных
Трек  5  нет в базе данных
Трек  6  нет в базе данных
Трек  7  нет в базе данных
Ни одного трека нет в базе AccurateRip
Конец отчёта
Код:
REM DATE 2011
REM DISCID 5A095D07
REM COMMENT "ExactAudioCopy v0.99pb5"
PERFORMER "ministry of truth"
TITLE "aut caesar, aut nihil! ep"
FILE "ministry of truth - aut caesar, aut nihil! ep.flac" WAVE
  TRACK 01 AUDIO
    TITLE "эй, вы!"
    PERFORMER "ministry of truth"
    INDEX 01 00:00:00
  TRACK 02 AUDIO
    TITLE "aut caesar, aut nihil!"
    PERFORMER "ministry of truth"
    INDEX 01 03:36:10
  TRACK 03 AUDIO
    TITLE "троянский конь"
    PERFORMER "ministry of truth"
    INDEX 01 10:36:74
  TRACK 04 AUDIO
    TITLE "praenomen"
    PERFORMER "ministry of truth"
    INDEX 01 14:54:40
  TRACK 05 AUDIO
    TITLE "аннушкино масло"
    PERFORMER "ministry of truth"
    INDEX 01 20:33:10
  TRACK 06 AUDIO
    TITLE "aut caesar, aut nihil! (idefix remix by flammenform36)"
    PERFORMER "ministry of truth"
    INDEX 01 28:00:73
  TRACK 07 AUDIO
    TITLE "aut caesar, aut nihil! (remixed by sinestesia)"
    PERFORMER "ministry of truth"
    INDEX 01 33:43:14
Доп. информация:
#777
Ministry Of Truth
"...Это был удар под дых. Неожиданно оказаться главным на концерте всеми любимой группы - ситуация не для слабаков. Тем не менее, после короткого выступления Otto Dix, во время которого Драу публично умирал на сцене, Ministry of Truth не ударили в грязь лицом и выступили мощно и весомо. Чем и заслужили аплодисменты благодарной пропирсингованной публики. На следующий день профильный интернет - форум взорвался отзывами о выступлении «Министерства Правды»...."
(Р. Матыцин, jamsession.ru)
В отличие от оруэлловского Министерства Правды, музыкальный коллектив, носящий имя MINISTRY OF TRUTH, не предлагает своей аудитории какой-либо готовой «правды». Участники группы сами находятся в постоянном поиске правды. Или даже Правды. И своим слушателям предлагают, не много, ни мало, присоединиться к этому поиску…
Группа MINISTRY OF TRUTH была образована в Краснодаре в апреле 2007 года. Однако днем рождения коллектива музыканты считают 1 сентября - день, когда они первый раз вышли на сцену.
Музыка MINISTRY OF TRUTH, с одной стороны, довольно эклектична. С другой же, несмотря на всю разноплановость, ее можно довольно четко обозначить одним словом - darkwave.
#777Отличительной особенностью MINISTRY OF TRUTH стала манера воспроизведения текста: не традиционное пение, но своего рода мелодекламация: яркая, насыщенная, эмоциональная, завораживающая.
Первоначальный состав: Minister Of Sounds (музыка, гитары, бас, синтезаторы) и Minister Of Speech (тексты и голос). В таком виде коллектив отработал первые несколько концертов и записал дебютный мини-альбом, названный Ministry Of Truth.
Летом 2008-го года в группе появляется третий участник, Minister Of Harmony (голос, тамбурин, шейкер). В этом составе записан второй мини-альбом Night Of The Soul. Одним из номеров пластинки стал ремикс на композицию Father из первого мини-альбома, записанный группой ENDRAUM.
Еще через год, летом 2009-го года, в группе появляется четвертый персонаж, Minister Of Culture (голос, тамбурин, шейкер, варган). В этом составе был записан третий мини-альбом Something, Somewhere.
В конце года, во время работы сразу над несколькими новыми релизами, группу оставил один из ее основателей, Minister Of Speech. Его обязанности разделили между собой оставшиеся участники коллектива.
В 2010 году MINISTRY OF TRUTH выпустили в общей сложности 4 релиза: полноформатный альбом "Pocketsize God", сборник альтернативных миксов, ремиксов и не вошедших в альбом треков "Peel", а также мини-альбомы #777"Слепой" и "Emotions".
Летом 2010-го в группу возвращается Minister Of Speech, и в этом классическом составе в виде уже четырех вокалистов коллектив приступает к работе над новой концертной программой и новыми записями.
MINISTRY OF TRUTH делили сцену с такими группами как DAS ICH, DIARY OF DREAMS, GOTHIKA, MOON FAR AWAY, ROMAN RAIN и др.
ВНИМАНИЕ!!!БОЛЬШАЯ ПРОСЬБА К СКАЧАВШИМ -
НЕ УХОДИТЕ С РАЗДАЧИ!!!
Раздаю не регулярно! Если нет сидов - пишите в личку, по возможности стану на раздачу.
09.10.2010 ТОРРЕНТ ПЕРЕЗАЛИТ!!!
Добавлен мини-альбом "Emotions", тексты песен.

18.07.2011 ТОРРЕНТ ОБНОВЛЕН!!!
Добавлен мини-альбом "Aut Caesar, Aut Nihil!".
Слушайте на здоровье!
29.08.2012 ТОРРЕНТ ОБНОВЛЕН!!!
Добавлен альбом "Скотный Двор".
Правила, инструкции, FAQ!!!
Торрент  Добавлен [26 июн 2020, 17:33] Скачать торрент Магнет ссылка
Скачать торрент
[ Размер 17.36 КБ / Просмотров 11 ]

Статус
Проверен 
 
Размер  2.14 ГБ
Приватный: Нет (DHT включён)
.torrent скачан  0
 


     Отправить личное сообщение
   
Страница 1 из 1
Показать сообщения за:  Поле сортировки  
Начать новую тему Ответить на тему


Сейчас этот форум просматривают: нет зарегистрированных пользователей и гости: 0


Вы не можете начинать темы
Вы не можете отвечать на сообщения
Вы не можете редактировать свои сообщения
Вы не можете удалять свои сообщения
Вы не можете добавлять вложения

Перейти:  
cron