Начать новую тему Ответить на тему
Статистика раздачи
Размер: 160.39 МБ | Добавлен: 26 июн 2020, 17:52 | Скачали: 1
Сидеров: 1  [0 байт/сек]    Личеров: 0  [0 байт/сек]
Пред. тема | След. тема 

Автор
Сообщение

СообщениеДобавлено: 26 июн 2020, 17:52 

Ответить с цитатой 

Unreal - Три ночи (single)
Жанр: Darkwave/Gothic
Год выпуска диска: 2006
Производитель диска: Россия, self-released
Аудио кодек: FLAC
Тип рипа: image+.cue
Битрейт аудио: lossless
Продолжительность: 14:33
Трэклист:
01 - Три ночи
02 - Ритуал (Demo)
03 - Newtype (Demo)
+ бонус:
Audio: Windows Media Audio 44100Hz stereo 64Kbps [Raw Audio 0]
Video: Windows Media Video 9 670x380 25.00fps 1000Kbps [Raw Video 1]
Audio: Windows Media Audio 44100Hz stereo 64Kbps [Raw Audio 0]
Video: Windows Media Video 9 670x380 25.00fps 1000Kbps [Raw Video 1]
Exact Audio Copy V0.99 prebeta 4 from 23. January 2008
Отчёт EAC об извлечении, выполненном 20. ноября 2009, 16:27
Unreal / Три ночи (single)
Дисковод: TEAC DW-552GA Adapter: 3 ID: 1
Режим чтения : Достоверность
Использование точного потока : Да
Отключение кэша аудио : Да
Использование указателей C2 : Нет
Коррекция смещения при чтении : 6
Способность читать области Lead-in и Lead-out : Нет
Заполнение пропущенных сэмплов тишиной : Да
Удаление блоков с тишиной в начале и конце : Нет
При вычислениях CRC использовались нулевые сэмплы : Да
Интерфейс : Установленный внешний ASPI-интерфейс
Выходной формат : Внутренние WAV-операции
Формат сэмплов : 44.100 Гц; 16 бит; стерео
TOC извлечённого CD
Трек | Старт | Длительность | Начальный сектор | Конечный сектор
---------------------------------------------------------------------
1 | 0:00.00 | 3:48.37 | 0 | 17136
2 | 3:48.37 | 3:33.37 | 17137 | 33148
3 | 7:21.74 | 7:12.00 | 33149 | 65548
4 | 17:05.74 | 6:26.44 | 76949 | 105942
Характеристики диапазона извлечения и сообщения об ошибках
Выбранный диапазон
Имя файла C:\mp3\Unreal - Три ночи (single).wav
Пиковый уровень 100.0 %
Качество диапазона 99.9 %
CRC копии 100C0A6E
Копирование... OK
Ошибок не произошло
Конец отчёта
Доп. информация: Первый сингл российской группы Unreal, заглавная песня с которого вошла в саундтрек отстойного фильма "Ведьма"
Правила, инструкции, FAQ!!!
Торрент  Добавлен [26 июн 2020, 17:52] Скачать торрент Магнет ссылка
Скачать торрент
[ Размер 28.54 КБ / Просмотров 13 ]

Статус
Проверен 
 
Размер  160.39 МБ
Приватный: Нет (DHT включён)
.torrent скачан  1
 


     Отправить личное сообщение
   
Страница 1 из 1
Показать сообщения за:  Поле сортировки  
Начать новую тему Ответить на тему


Сейчас этот форум просматривают: нет зарегистрированных пользователей и гости: 0


Вы не можете начинать темы
Вы не можете отвечать на сообщения
Вы не можете редактировать свои сообщения
Вы не можете удалять свои сообщения
Вы не можете добавлять вложения

Перейти:  
cron