Начать новую тему Ответить на тему
Статистика раздачи
Размер: 348.64 МБ | Добавлен: 26 июн 2020, 17:45 | Скачали: 0
Сидеров: 0  [0 байт/сек]    Личеров: 0  [0 байт/сек]
Пред. тема | След. тема 

Автор
Сообщение

СообщениеДобавлено: 26 июн 2020, 17:45 

Ответить с цитатой 

Die Form - Noir Magnetique
Жанр: Darkwave, Gothic Industrial
Год выпуска диска: 2009
Производитель диска: Germany
Аудио кодек: APE
Тип рипа: image+.cue
Битрейт аудио: lossless
Продолжительность: 0:48:42
Трэклист:
1. Voltaic Control System (3:55)
2. Decadence (4:45)
3. Deep Zone (4:23)
4. Noctural Emotions (3:58)
5. Tristesse (3:52)
6. Waves Of Dreams (4:03)
7. Autonomic (4:16)
8. Inferno (3:51)
9. Her[t]z Frequenz (4:32)
10. Double Life (5:22)
11. Vox Angelica (5:47)
Exact Audio Copy V0.99 prebeta 4 from 23. January 2008
EAC extraction logfile from 16. August 2009, 13:16
Die Form / Noir Magnetique
Used drive : Optiarc DVD RW AD-7560A Adapter: 2 ID: 0
Read mode : Secure
Utilize accurate stream : Yes
Defeat audio cache : Yes
Make use of C2 pointers : No
Read offset correction : 6
Overread into Lead-In and Lead-Out : No
Fill up missing offset samples with silence : Yes
Delete leading and trailing silent blocks : No
Null samples used in CRC calculations : Yes
Used interface : Native Win32 interface for Win NT & 2000
Used output format : Internal WAV Routines
Sample format : 44.100 Hz; 16 Bit; Stereo
TOC of the extracted CD
Track | Start | Length | Start sector | End sector
---------------------------------------------------------
1 | 0:00.00 | 3:54.48 | 0 | 17597
2 | 3:54.48 | 4:45.48 | 17598 | 39020
3 | 8:40.21 | 4:22.48 | 39021 | 58718
4 | 13:02.69 | 3:58.48 | 58719 | 76616
5 | 17:01.42 | 3:52.48 | 76617 | 94064
6 | 20:54.15 | 4:02.48 | 94065 | 112262
7 | 24:56.63 | 4:15.48 | 112263 | 131435
8 | 29:12.36 | 3:52.48 | 131436 | 148883
9 | 33:05.09 | 4:32.48 | 148884 | 169331
10 | 37:37.57 | 5:24.48 | 169332 | 193679
11 | 43:02.30 | 5:46.48 | 193680 | 219677
Range status and errors
Selected range
Filename D:\Music\Die Form - Noir Magnetique.wav
Peak level 98.8 %
Range quality 99.9 %
Copy CRC 18D277F4
Copy OK
No errors occurred
AccurateRip summary
Track 1 not present in database
Track 2 not present in database
Track 3 not present in database
Track 4 not present in database
Track 5 not present in database
Track 6 not present in database
Track 7 not present in database
Track 8 not present in database
Track 9 not present in database
Track 10 not present in database
Track 11 not present in database
None of the tracks are present in the AccurateRip database
End of status report
Правила, инструкции, FAQ!!!
Торрент  Добавлен [26 июн 2020, 17:45] Скачать торрент Магнет ссылка
Скачать торрент
[ Размер 14.29 КБ / Просмотров 13 ]

Статус
Проверен 
 
Размер  348.64 МБ
Приватный: Нет (DHT включён)
.torrent скачан  0
 


     Отправить личное сообщение
   
Страница 1 из 1
Показать сообщения за:  Поле сортировки  
Начать новую тему Ответить на тему


Сейчас этот форум просматривают: нет зарегистрированных пользователей и гости: 0


Вы не можете начинать темы
Вы не можете отвечать на сообщения
Вы не можете редактировать свои сообщения
Вы не можете удалять свои сообщения
Вы не можете добавлять вложения

Перейти:  
cron