Начать новую тему Ответить на тему
Статистика раздачи
Размер: 1.06 ГБ | Добавлен: 26 июн 2020, 17:20 | Скачали: 0
Сидеров: 1  [0 байт/сек]    Личеров: 0  [0 байт/сек]
Пред. тема | След. тема 

Автор
Сообщение

СообщениеДобавлено: 26 июн 2020, 17:20 

Ответить с цитатой 

Veljanov - Full-length albums (1998-2008)
Официальный сайт: http://www.veljanov.de/

Veljanov - Secrets Of The Silver Tongue
Жанр: Darkwave, Electronic
Год выпуска диска: 1998 (2005)
Производитель диска: Irond
Аудио кодек: APE
Тип рипа: image+.cue
Битрейт аудио: lossless
Продолжительность: 46:27
Трэклист:
1. The Past and Forever (4:44)
2. Slippery World (4:07)
3. Lay Down (4:10)
4. The Man with the Silver Gun (3:29)
5. Fragile Little Thing (2:44)
6. Summer Nights (Kiss the Rain Goodbye) (6:21)
7. Jezebel (3:54)
8. Feed on me (4:54)
9. Because of you (5:31)
10. After the Rain (2:43)
11. Empty Heart (3:50)
Exact Audio Copy V0.99 prebeta 5 from 4. May 2009
Отчёт EAC об извлечении, выполненном 15. марта 2010, 23:52
Alexander Veljanov / Secrets of the Silver Tongue
Дисковод: ASUS DRW-1608P2S Adapter: 1 ID: 1
Режим чтения : Достоверность
Использование точного потока : Да
Отключение кэша аудио : Да
Использование указателей C2 : Нет
Коррекция смещения при чтении : 48
Способность читать области Lead-in и Lead-out : Нет
Заполнение пропущенных сэмплов тишиной : Да
Удаление блоков с тишиной в начале и конце : Нет
При вычислениях CRC использовались нулевые сэмплы : Да
Интерфейс : Установленный внешний ASPI-интерфейс
Выходной формат : Monkey's Audio (без потерь)
Выбранный битрейт : High Lossless Compression
Качество : Высокий
Добавление ID3-тэга : Да
Утилита сжатия : C:\Program Files\Monkey's Audio\MAC.exe
TOC извлечённого CD
Трек | Старт | Длительность | Начальный сектор | Конечный сектор
---------------------------------------------------------------------
1 | 0:00.00 | 4:44.33 | 0 | 21332
2 | 4:44.33 | 4:06.47 | 21333 | 39829
3 | 8:51.05 | 4:10.24 | 39830 | 58603
4 | 13:01.29 | 3:28.61 | 58604 | 74264
5 | 16:30.15 | 2:44.11 | 74265 | 86575
6 | 19:14.26 | 6:20.74 | 86576 | 115149
7 | 25:35.25 | 3:54.08 | 115150 | 132707
8 | 29:29.33 | 4:54.36 | 132708 | 154793
9 | 34:23.69 | 5:31.06 | 154794 | 179624
10 | 39:55.00 | 2:43.16 | 179625 | 191865
11 | 42:38.16 | 3:49.56 | 191866 | 209096
Характеристики диапазона извлечения и сообщения об ошибках
Выбранный диапазон
Имя файла C:\Documents and Settings\OlegG\Мои документы\Downloads\Veljanov - Secrets Of The Silver Tongue (1998)\Alexander Veljanov - Secrets of the Silver Tongue.wav
Пиковый уровень 98.5 %
Качество диапазона 100.0 %
CRC теста 3CEDE5BB
CRC копии 3CEDE5BB
Копирование... OK
Ошибок не произошло
AccurateRip: сводка
Трек 1 точность не определена (достоверность 9) [15D4766D], AccurateRip вернул [0CBDE731]
Трек 2 точность не определена (достоверность 9) [881F9DDB], AccurateRip вернул [FE56AB01]
Трек 3 точность не определена (достоверность 9) [F0841A15], AccurateRip вернул [E3BA04F1]
Трек 4 точность не определена (достоверность 9) [FB1FBAA1], AccurateRip вернул [621BA993]
Трек 5 точность не определена (достоверность 9) [5597925E], AccurateRip вернул [74F150F0]
Трек 6 точность не определена (достоверность 9) [8E8D9FC2], AccurateRip вернул [687D0632]
Трек 7 точность не определена (достоверность 9) [362049A2], AccurateRip вернул [6D3E4237]
Трек 8 точность не определена (достоверность 9) [DAB4EF1A], AccurateRip вернул [7733C526]
Трек 9 точность не определена (достоверность 9) [90CBE851], AccurateRip вернул [5D4AFC55]
Трек 10 точность не определена (достоверность 9) [20587DCC], AccurateRip вернул [5D6054AF]
Трек 11 точность не определена (достоверность 9) [150DD385], AccurateRip вернул [06A04CE9]
Ни один трек не прошёл проверки на точность
В вашей базе может быть иной вариант штамповки диска
Конец отчёта

Veljanov - The Sweet Life
#777Жанр: Darkwave, Electronic
Год выпуска диска: 2001
Производитель диска: EU
Аудио кодек: APE
Тип рипа: image+.cue
Битрейт аудио: lossless
Продолжительность: 49:28
Трэклист:
1. The Sweet Life (5:24)
2. Fly Away (4:44)
3. Black Girl (4:30)
4. The Wind (4:26)
5. Seraphim (4:43)
6. Town by the River (3:57)
7. Longer Longer (4:05)
8. In my Room (2:55)
9. Das Lied vom einsamen Mädchen (5:17)
10. Chains of Steel (4:04)
11. Blag Zhivot (5:23)
Exact Audio Copy V0.99 prebeta 5 from 4. May 2009
Отчёт EAC об извлечении, выполненном 15. марта 2010, 23:14
Alexander Veljanov / The Sweet Life
Дисковод: ASUS DRW-1608P2S Adapter: 1 ID: 1
Режим чтения : Достоверность
Использование точного потока : Да
Отключение кэша аудио : Да
Использование указателей C2 : Нет
Коррекция смещения при чтении : 48
Способность читать области Lead-in и Lead-out : Нет
Заполнение пропущенных сэмплов тишиной : Да
Удаление блоков с тишиной в начале и конце : Нет
При вычислениях CRC использовались нулевые сэмплы : Да
Интерфейс : Установленный внешний ASPI-интерфейс
Выходной формат : Monkey's Audio (без потерь)
Выбранный битрейт : High Lossless Compression
Качество : Высокий
Добавление ID3-тэга : Да
Утилита сжатия : C:\Program Files\Monkey's Audio\MAC.exe
TOC извлечённого CD
Трек | Старт | Длительность | Начальный сектор | Конечный сектор
---------------------------------------------------------------------
1 | 0:00.00 | 5:24.12 | 0 | 24311
2 | 5:24.12 | 4:43.69 | 24312 | 45605
3 | 10:08.06 | 4:29.50 | 45606 | 65830
4 | 14:37.56 | 4:25.64 | 65831 | 85769
5 | 19:03.45 | 4:43.08 | 85770 | 107002
6 | 23:46.53 | 3:57.37 | 107003 | 124814
7 | 27:44.15 | 4:04.67 | 124815 | 143181
8 | 31:49.07 | 2:55.25 | 143182 | 156331
9 | 34:44.32 | 5:16.50 | 156332 | 180081
10 | 40:01.07 | 4:04.34 | 180082 | 198415
11 | 44:05.41 | 5:22.74 | 198416 | 222639
Характеристики диапазона извлечения и сообщения об ошибках
Выбранный диапазон
Имя файла C:\Documents and Settings\OlegG\Мои документы\Downloads\Veljanov - The Sweet Life (2001)\Alexander Veljanov - The Sweet Life.wav
Пиковый уровень 99.4 %
Качество диапазона 100.0 %
CRC теста D3D4272F
CRC копии D3D4272F
Копирование... OK
Ошибок не произошло
AccurateRip: сводка
Трек 1 точное извлечение (доверие 9) [D44774D5]
Трек 2 точное извлечение (доверие 9) [E745C8A1]
Трек 3 точное извлечение (доверие 9) [9C0EAD92]
Трек 4 точное извлечение (доверие 9) [8C5BF07E]
Трек 5 точное извлечение (доверие 9) [C1973EDB]
Трек 6 точное извлечение (доверие 9) [64E79364]
Трек 7 точное извлечение (доверие 9) [B2BDE693]
Трек 8 точное извлечение (доверие 9) [43FF518C]
Трек 9 точное извлечение (доверие 9) [8475B4BB]
Трек 10 точное извлечение (доверие 9) [C2EB7BBD]
Трек 11 точное извлечение (доверие 9) [BBCB2D25]
Все треки извлечены точно
Конец отчёта

Veljanov - Porta Macedonia
#777Жанр: Darkwave, Electronic
Год выпуска диска: 2008
Производитель диска: EU
Аудио кодек: APE
Тип рипа: image+.cue
Битрейт аудио: lossless
Продолжительность: 68:41
Трэклист:
1. Der Kongress (4:45)
2. Nie mehr (5:50)
3. His Vita (6:02)
4. We Can't Turn Back (5:09)
5. Mein Weg (4:42)
6. The New Order (7:58)
7. Konigin aus Eis (4:40)
8. Dirt (9:19)
9. Lily B. (6:13)
10. Your House On My Hill (8:26)
11. Zwei vor und drei zuruck (5:37)
Доп. информация: Digipack Standart Edition
Exact Audio Copy V0.99 prebeta 4 from 23. January 2008
Отчёт EAC об извлечении, выполненном 5. июня 2009, 18:48
Veljanov / Porta Macedonia
Дисковод: ASUS DRW-1608P2S Adapter: 1 ID: 1
Режим чтения : Достоверность
Использование точного потока : Да
Отключение кэша аудио : Да
Использование указателей C2 : Нет
Коррекция смещения при чтении : 48
Способность читать области Lead-in и Lead-out : Нет
Заполнение пропущенных сэмплов тишиной : Да
Удаление блоков с тишиной в начале и конце : Нет
При вычислениях CRC использовались нулевые сэмплы : Да
Интерфейс : Установленный внешний ASPI-интерфейс
Выходной формат : Monkey's Audio (без потерь)
Выбранный битрейт : High Lossless Compression
Качество : Высокий
Добавление ID3-тэга : Да
Утилита сжатия : C:\Program Files\Monkey's Audio\MAC.exe
TOC извлечённого CD
Трек | Старт | Длительность | Начальный сектор | Конечный сектор
---------------------------------------------------------------------
1 | 0:00.00 | 4:45.56 | 0 | 21430
2 | 4:45.56 | 5:50.47 | 21431 | 47727
3 | 10:36.28 | 6:02.68 | 47728 | 74945
4 | 16:39.21 | 5:09.20 | 74946 | 98140
5 | 21:48.41 | 4:42.23 | 98141 | 119313
6 | 26:30.64 | 7:58.48 | 119314 | 155211
7 | 34:29.37 | 4:40.14 | 155212 | 176225
8 | 39:09.51 | 9:19.24 | 176226 | 218174
9 | 48:29.00 | 6:13.08 | 218175 | 246157
10 | 54:42.08 | 8:26.66 | 246158 | 284173
11 | 63:08.74 | 5:37.16 | 284174 | 309464
Характеристики диапазона извлечения и сообщения об ошибках
Выбранный диапазон
Имя файла C:\Documents and Settings\OlegG\Мои документы\Downloads\Veljanov - Porta Macedonia (2008)\Veljanov - Porta Macedonia.wav
Пиковый уровень 98.7 %
Качество диапазона 100.0 %
CRC теста 74CACF41
CRC копии 74CACF41
Копирование... OK
Ошибок не произошло
AccurateRip: сводка
Трек 1 точное извлечение (доверие 5) [54072FEA]
Трек 2 точное извлечение (доверие 5) [BC33FC08]
Трек 3 точное извлечение (доверие 5) [FBCE2CC8]
Трек 4 точное извлечение (доверие 5) [CCB77A8A]
Трек 5 точное извлечение (доверие 5) [80E387A2]
Трек 6 точное извлечение (доверие 5) [D88C491A]
Трек 7 точное извлечение (доверие 5) [D041B997]
Трек 8 точное извлечение (доверие 5) [68814AA9]
Трек 9 точное извлечение (доверие 5) [F1B5BAA6]
Трек 10 точное извлечение (доверие 5) [9872CF0C]
Трек 11 точное извлечение (доверие 5) [45CE002A]
Все треки извлечены точно
Конец отчёта
Правила, инструкции, FAQ!!!
Торрент  Добавлен [26 июн 2020, 17:20] Скачать торрент Магнет ссылка
Скачать торрент
[ Размер 14.94 КБ / Просмотров 9 ]

Статус
Проверен 
 
Размер  1.06 ГБ
Приватный: Нет (DHT включён)
.torrent скачан  0
 


     Отправить личное сообщение
   
Страница 1 из 1
Показать сообщения за:  Поле сортировки  
Начать новую тему Ответить на тему


Сейчас этот форум просматривают: нет зарегистрированных пользователей и гости: 0


Вы не можете начинать темы
Вы не можете отвечать на сообщения
Вы не можете редактировать свои сообщения
Вы не можете удалять свои сообщения
Вы не можете добавлять вложения

Перейти:  
cron