Начать новую тему Ответить на тему
Статистика раздачи
Размер: 410.63 МБ | Добавлен: 26 июн 2020, 17:03 | Скачали: 0
Сидеров: 0  [0 байт/сек]    Личеров: 0  [0 байт/сек]
Пред. тема | След. тема 

Автор
Сообщение

СообщениеДобавлено: 26 июн 2020, 17:03 

Ответить с цитатой 

The Eternal Afflict / Atroci(-me)ty
Жанр: Darkwave, Electro
Страна-производитель диска: Germany
Год издания: 1991
Издатель (лейбл): Glasnost Records
Номер по каталогу: CD GLAS 901
Аудиокодек: FLAC (*.flac)
Тип рипа: tracks+.cue
Битрейт аудио: lossless
Продолжительность: 1:03:38
Источник (релизер): собственный диск
Наличие сканов в содержимом раздачи: нет
Треклист:
1 Daughters Of Guyón
2 Door To My Pain
3 We Will Die Crying
4 Visions
5 San Diego
6 Hymn For Opressed Children
6 I Retarding Profanation
6 II Lonely Places
6 III Buried Under Ice
6 IV Stoneflood
6 V Wasted Youth
6 VI Red Violett Flowers
6 VII Played Incompetence
7 Sexual Decay
8 New Child - Generation
9 Oh, You In Heaven (Accoustic)
Код:
Exact Audio Copy V1.0 beta 3 from 29. August 2011
EAC extraction logfile from 1. May 2013, 16:21
The Eternal Afflict / Atroci (-Me) Ty
Used drive  : PIONEER DVD-RW  DVR-220   Adapter: 3  ID: 0
Read mode               : Secure
Utilize accurate stream : Yes
Defeat audio cache      : Yes
Make use of C2 pointers : No
Read offset correction                      : 6
Overread into Lead-In and Lead-Out          : No
Fill up missing offset samples with silence : Yes
Delete leading and trailing silent blocks   : No
Null samples used in CRC calculations       : Yes
Used interface                              : Native Win32 interface for Win NT & 2000
Gap handling                                : Appended to previous track
Used output format              : User Defined Encoder
Selected bitrate                : 1024 kBit/s
Quality                         : High
Add ID3 tag                     : No
Command line compressor         : G:\audio\flac\flac.exe
Additional command line options : -8 -V -T "ARTIST=%artist%" -T "TITLE=%title%" -T "ALBUM=%albumtitle%" -T "DATE=%year%" -T "TRACKNUMBER=%tracknr%" -T "GENRE=%genre%" -T "PERFORMER=%albuminterpret%" -T "COMPOSER=%composer%" %haslyrics%--tag-from-file=LYRICS="%lyricsfile%"%haslyrics% -T "ALBUMARTIST=%albumartist%" -T "DISCNUMBER=%cdnumber%" -T "TOTALDISCS=%totalcds%" -T "TOTALTRACKS=%numtracks%" -T "COMMENT=%comment%" %source% -o %dest%
TOC of the extracted CD
     Track |   Start  |  Length  | Start sector | End sector
    ---------------------------------------------------------
        1  |  0:00.00 |  7:14.42 |         0    |    32591
        2  |  7:14.42 |  4:32.10 |     32592    |    53001
        3  | 11:46.52 |  6:34.38 |     53002    |    82589
        4  | 18:21.15 |  5:06.45 |     82590    |   105584
        5  | 23:27.60 |  4:14.62 |    105585    |   124696
        6  | 27:42.47 | 25:51.73 |    124697    |   241094
        7  | 53:34.45 |  5:37.65 |    241095    |   266434
        8  | 59:12.35 |  6:57.25 |    266435    |   297734
        9  | 66:09.60 |  4:43.15 |    297735    |   318974
Track  1
     Filename K:\Music\tmp\The Eternal Afflict 1991 Atroci (-Me) Ty\01. Daughters of Guyôn.wav
     Pre-gap length  0:00:02.00
     Peak level 95.7 %
     Extraction speed 0.7 X
     Track quality 99.9 %
     Test CRC 608D91FB
     Copy CRC 608D91FB
     Accurately ripped (confidence 9)  [0CF5C790]  (AR v1)
     Copy OK
Track  2
     Filename K:\Music\tmp\The Eternal Afflict 1991 Atroci (-Me) Ty\02. Door to My Pain.wav
     Pre-gap length  0:00:01.86
     Peak level 90.6 %
     Extraction speed 0.8 X
     Track quality 100.0 %
     Test CRC 1E004943
     Copy CRC 1E004943
     Accurately ripped (confidence 9)  [90DD48E5]  (AR v1)
     Copy OK
Track  3
     Filename K:\Music\tmp\The Eternal Afflict 1991 Atroci (-Me) Ty\03. We Will Die Crying.wav
     Pre-gap length  0:00:02.36
     Peak level 86.1 %
     Extraction speed 0.8 X
     Track quality 100.0 %
     Test CRC EF10EE87
     Copy CRC EF10EE87
     Accurately ripped (confidence 10)  [38A0DF80]  (AR v1)
     Copy OK
Track  4
     Filename K:\Music\tmp\The Eternal Afflict 1991 Atroci (-Me) Ty\04. Visions.wav
     Pre-gap length  0:00:01.53
     Peak level 96.0 %
     Extraction speed 0.8 X
     Track quality 100.0 %
     Test CRC EE5E8E33
     Copy CRC EE5E8E33
     Accurately ripped (confidence 8)  [9A94F70F]  (AR v1)
     Copy OK
Track  5
     Filename K:\Music\tmp\The Eternal Afflict 1991 Atroci (-Me) Ty\05. San Diego.wav
     Pre-gap length  0:00:01.26
     Peak level 96.7 %
     Extraction speed 0.8 X
     Track quality 100.0 %
     Test CRC 1A289F24
     Copy CRC 1A289F24
     Accurately ripped (confidence 9)  [EEE434D6]  (AR v1)
     Copy OK
Track  6
     Filename K:\Music\tmp\The Eternal Afflict 1991 Atroci (-Me) Ty\06. Hymn for Oppressed Children- Retarding Profanation , Lonely Places , Buried Under Ice , Stoneflood , Wasted Youth , Red Violett Flowers , Played Incompetence.wav
     Pre-gap length  0:00:02.13
     Peak level 94.7 %
     Extraction speed 9.1 X
     Track quality 100.0 %
     Test CRC 564D0565
     Copy CRC 564D0565
     Accurately ripped (confidence 8)  [C2DC2648]  (AR v1)
     Copy OK
Track  7
     Filename K:\Music\tmp\The Eternal Afflict 1991 Atroci (-Me) Ty\07. Sexual Decay.wav
     Pre-gap length  0:00:01.86
     Peak level 95.3 %
     Extraction speed 9.5 X
     Track quality 100.0 %
     Test CRC F6D54772
     Copy CRC F6D54772
     Accurately ripped (confidence 9)  [52492F9E]  (AR v1)
     Copy OK
Track  8
     Filename K:\Music\tmp\The Eternal Afflict 1991 Atroci (-Me) Ty\08. New Child - Generation.wav
     Pre-gap length  0:00:01.46
     Peak level 87.5 %
     Extraction speed 8.9 X
     Track quality 99.9 %
     Test CRC 27D15F59
     Copy CRC 27D15F59
     Accurately ripped (confidence 8)  [B371BC6B]  (AR v1)
     Copy OK
Track  9
     Filename K:\Music\tmp\The Eternal Afflict 1991 Atroci (-Me) Ty\09. Oh, You in Heaven (acoustic).wav
     Pre-gap length  0:00:01.60
     Peak level 89.9 %
     Extraction speed 8.5 X
     Track quality 99.9 %
     Test CRC 8F6F5FFC
     Copy CRC 8F6F5FFC
     Accurately ripped (confidence 9)  [2CB70942]  (AR v1)
     Copy OK
All tracks accurately ripped
No errors occurred
End of status report
---- CUETools DB Plugin V2.1.3
[CTDB TOCID: 7SBIYdCZyCC_Ysya4R3D6Pr5iEY-] found, Submit result: 7SBIYdCZyCC_Ysya4R3D6Pr5iEY- has been confirmed
[dfd9a1e0] (2/3) Accurately ripped
[ef1273e5] (1/3) No match
==== Log checksum 612DE7A9194DA013AF301DCC14A9CBC5CF7A8257ABF234EB3CD74DC5F1350875 ====
Код:
REM DATE 1991
REM DISCID 73109D09
REM COMMENT "ExactAudioCopy v1.0b3"
PERFORMER "The Eternal Afflict"
TITLE "Atroci (-Me) Ty"
FILE "01. Daughters of Guyon.wav" WAVE
  TRACK 01 AUDIO
    TITLE "Daughters of Guyon"
    PERFORMER "The Eternal Afflict"
    INDEX 01 00:00:00
  TRACK 02 AUDIO
    TITLE "Door to My Pain"
    PERFORMER "The Eternal Afflict"
    INDEX 00 07:12:52
FILE "02. Door to My Pain.wav" WAVE
    INDEX 01 00:00:00
  TRACK 03 AUDIO
    TITLE "We Will Die Crying"
    PERFORMER "The Eternal Afflict"
    INDEX 00 04:29:58
FILE "03. We Will Die Crying.wav" WAVE
    INDEX 01 00:00:00
  TRACK 04 AUDIO
    TITLE "Visions"
    PERFORMER "The Eternal Afflict"
    INDEX 00 06:32:73
FILE "04. Visions.wav" WAVE
    INDEX 01 00:00:00
  TRACK 05 AUDIO
    TITLE "San Diego"
    PERFORMER "The Eternal Afflict"
    INDEX 00 05:05:25
FILE "05. San Diego.wav" WAVE
    INDEX 01 00:00:00
  TRACK 06 AUDIO
    TITLE "Hymn for Oppressed Children: Retarding Profanation / Lonely Places / Buried U..."
    PERFORMER "The Eternal Afflict"
    INDEX 00 04:12:52
FILE "06. Hymn for Oppressed Children- Retarding Profanation , Lonely Places , Buried Under Ice , Stoneflood , Wasted Youth , Red Violett Flowers , Played Incompetence.wav" WAVE
    INDEX 01 00:00:00
    INDEX 02 04:53:18
    INDEX 03 08:13:43
    INDEX 04 12:59:28
    INDEX 05 14:45:58
    INDEX 06 19:07:05
    INDEX 07 24:31:53
  TRACK 07 AUDIO
    TITLE "Sexual Decay"
    PERFORMER "The Eternal Afflict"
    INDEX 00 25:50:08
FILE "07. Sexual Decay.wav" WAVE
    INDEX 01 00:00:00
  TRACK 08 AUDIO
    TITLE "New Child - Generation"
    PERFORMER "The Eternal Afflict"
    INDEX 00 05:36:30
FILE "08. New Child - Generation.wav" WAVE
    INDEX 01 00:00:00
  TRACK 09 AUDIO
    TITLE "Oh, You in Heaven (acoustic)"
    PERFORMER "The Eternal Afflict"
    INDEX 00 06:55:55
FILE "09. Oh, You in Heaven (acoustic).wav" WAVE
    INDEX 01 00:00:00
Доп. информация: http://www.discogs.com/Eternal-Afflict-Atroci-mety/release/4312579
Правила, инструкции, FAQ!!!
Торрент  Добавлен [26 июн 2020, 17:03] Скачать торрент Магнет ссылка
Скачать торрент
[ Размер 17.22 КБ / Просмотров 6 ]

Статус
Проверен 
 
Размер  410.63 МБ
Приватный: Нет (DHT включён)
.torrent скачан  0
 


     Отправить личное сообщение
   
Страница 1 из 1
Показать сообщения за:  Поле сортировки  
Начать новую тему Ответить на тему


Сейчас этот форум просматривают: нет зарегистрированных пользователей и гости: 1


Вы не можете начинать темы
Вы не можете отвечать на сообщения
Вы не можете редактировать свои сообщения
Вы не можете удалять свои сообщения
Вы не можете добавлять вложения

Перейти:  
cron