Начать новую тему Ответить на тему
Статистика раздачи
Размер: 425.45 МБ | Добавлен: 26 июн 2020, 17:21 | Скачали: 0
Сидеров: 0  [0 байт/сек]    Личеров: 0  [0 байт/сек]
Пред. тема | След. тема 

Автор
Сообщение

СообщениеДобавлено: 26 июн 2020, 17:21 

Ответить с цитатой 

Dance or Die / Schlafendeenergie
Жанр: Darkwave, Electro-Industrial
Носитель: CD
Страна-производитель диска (релиза): Russia
Год издания: 2001
Издатель (лейбл): SPV, Soyuz
Номер по каталогу: SPV 085-62692 CD
Страна исполнителя (группы): Germany
Аудиокодек: FLAC (*.flac)
Тип рипа: image+.cue
Продолжительность: 01:06:49
Источник: собственный рип
Наличие сканов в содержимом раздачи: да
Треклист:
1. Schlafendeenergie [1:47]
2. Seven [4:28]
3. Aliens Electric [4:03]
4. Everydaze [3:37]
5. Worm [5:21]
6. Captain Nemo [2:51]
7. World On Fire [4:19]
8. Freeze [5:39]
9. Dealbreaker [4:03]
10. Follow Me [4:20]
11. Secret Of The Sun [4:04]
12. Reality Suxxx [3:20]
13. Dial That No. [4:02]
14. Free [5:11]
15. Retroboy [9:44]
Код:
Exact Audio Copy V1.3 from 2. September 2016
EAC extraction logfile from 6. June 2019, 23:07
Dance or Die / Schlafendeenergie
Used drive  : MATSHITADVD-RAM UJ-841S   Adapter: 1  ID: 0
Read mode               : Secure
Utilize accurate stream : Yes
Defeat audio cache      : Yes
Make use of C2 pointers : No
Read offset correction                      : 102
Overread into Lead-In and Lead-Out          : No
Fill up missing offset samples with silence : Yes
Delete leading and trailing silent blocks   : No
Null samples used in CRC calculations       : Yes
Used interface                              : Native Win32 interface for Win NT & 2000
Used output format              : User Defined Encoder
Selected bitrate                : 128 kBit/s
Quality                         : High
Add ID3 tag                     : No
Command line compressor         : C:\Program Files (x86)\Exact Audio Copy\Flac\flac.exe
Additional command line options : -V -8 -T "Date=%year%" -T "Genre=%genre%" %source%
TOC of the extracted CD
     Track |   Start  |  Length  | Start sector | End sector
    ---------------------------------------------------------
        1  |  0:00.00 |  1:47.36 |         0    |     8060
        2  |  1:47.36 |  4:28.21 |      8061    |    28181
        3  |  6:15.57 |  4:02.47 |     28182    |    46378
        4  | 10:18.29 |  3:36.60 |     46379    |    62638
        5  | 13:55.14 |  5:21.35 |     62639    |    86748
        6  | 19:16.49 |  2:50.73 |     86749    |    99571
        7  | 22:07.47 |  4:18.40 |     99572    |   118961
        8  | 26:26.12 |  5:39.37 |    118962    |   144423
        9  | 32:05.49 |  4:02.39 |    144424    |   162612
       10  | 36:08.13 |  4:19.41 |    162613    |   182078
       11  | 40:27.54 |  4:03.71 |    182079    |   200374
       12  | 44:31.50 |  3:19.38 |    200375    |   215337
       13  | 47:51.13 |  4:02.10 |    215338    |   233497
       14  | 51:53.23 |  5:11.28 |    233498    |   256850
       15  | 57:04.51 |  9:44.34 |    256851    |   300684
Range status and errors
Selected range
     Filename C:\Zloslaw\Dance or Die - 2001 - Schlafendeenergie (SPV 085-62692 CD)\Dance or Die - Schlafendeenergie.wav
     Peak level 100.0 %
     Extraction speed 2.5 X
     Range quality 100.0 %
     Test CRC 47746BCB
     Copy CRC 47746BCB
     Copy OK
No errors occurred
AccurateRip summary
Track  1  cannot be verified as accurate (confidence 7)  [026166B1], AccurateRip returned [0FADD6A7]  (AR v2)
Track  2  cannot be verified as accurate (confidence 7)  [70327F0F], AccurateRip returned [3ED9187C]  (AR v2)
Track  3  cannot be verified as accurate (confidence 7)  [AD3BEFD3], AccurateRip returned [5DB9C578]  (AR v2)
Track  4  cannot be verified as accurate (confidence 7)  [1CB7DE90], AccurateRip returned [43AA5FFE]  (AR v2)
Track  5  cannot be verified as accurate (confidence 7)  [B686DF07], AccurateRip returned [495323B0]  (AR v2)
Track  6  cannot be verified as accurate (confidence 7)  [6D4D2791], AccurateRip returned [09E9F153]  (AR v2)
Track  7  cannot be verified as accurate (confidence 7)  [282EF5B3], AccurateRip returned [DE13A326]  (AR v2)
Track  8  cannot be verified as accurate (confidence 7)  [114B7325], AccurateRip returned [C1B86935]  (AR v2)
Track  9  cannot be verified as accurate (confidence 7)  [90057C8F], AccurateRip returned [1AC73BA7]  (AR v2)
Track 10  cannot be verified as accurate (confidence 7)  [D8FB1C9B], AccurateRip returned [FC2A7FDB]  (AR v2)
Track 11  cannot be verified as accurate (confidence 7)  [2F60256F], AccurateRip returned [7A9712FD]  (AR v2)
Track 12  cannot be verified as accurate (confidence 7)  [AFB3E097], AccurateRip returned [C03E9EB3]  (AR v2)
Track 13  cannot be verified as accurate (confidence 7)  [E97A6826], AccurateRip returned [74BE5E29]  (AR v2)
Track 14  cannot be verified as accurate (confidence 7)  [DAD958D5], AccurateRip returned [FC6DE167]  (AR v2)
Track 15  cannot be verified as accurate (confidence 7)  [1021DED8], AccurateRip returned [CD72A13B]  (AR v2)
No tracks could be verified as accurate
You may have a different pressing from the one(s) in the database
End of status report
---- CUETools DB Plugin V2.1.6
[CTDB TOCID: _n2NM78WmwRPFzIff4sFQAAUleo-] found
Submit result: _n2NM78WmwRPFzIff4sFQAAUleo- has been confirmed
Track | CTDB Status
  1   | (14/14) Accurately ripped
  2   | (14/14) Accurately ripped
  3   | (14/14) Accurately ripped
  4   | (14/14) Accurately ripped
  5   | (14/14) Accurately ripped
  6   | (14/14) Accurately ripped
  7   | (14/14) Accurately ripped
  8   | (14/14) Accurately ripped
  9   | (14/14) Accurately ripped
 10   | (14/14) Accurately ripped
 11   | (14/14) Accurately ripped
 12   | (14/14) Accurately ripped
 13   | (14/14) Accurately ripped
 14   | (14/14) Accurately ripped
 15   | (14/14) Accurately ripped
==== Log checksum DEC34B01956B353F40D7A7B9D3EF11100FABF22FBC59233CBDBC93BB6E547332 ====
Правила, инструкции, FAQ!!!
Торрент  Добавлен [26 июн 2020, 17:21] Скачать торрент Магнет ссылка
Скачать торрент
[ Размер 18.34 КБ / Просмотров 17 ]

Статус
Проверен 
 
Размер  425.45 МБ
Приватный: Нет (DHT включён)
.torrent скачан  0
 


     Отправить личное сообщение
   
Страница 1 из 1
Показать сообщения за:  Поле сортировки  
Начать новую тему Ответить на тему


Сейчас этот форум просматривают: нет зарегистрированных пользователей и гости: 0


Вы не можете начинать темы
Вы не можете отвечать на сообщения
Вы не можете редактировать свои сообщения
Вы не можете удалять свои сообщения
Вы не можете добавлять вложения

Перейти:  
cron