Начать новую тему Ответить на тему
Статистика раздачи
Размер: 363.3 МБ | Добавлен: 26 июн 2020, 18:53 | Скачали: 0
Сидеров: 1  [0 байт/сек]    Личеров: 0  [0 байт/сек]
Пред. тема | След. тема 

Автор
Сообщение

СообщениеДобавлено: 26 июн 2020, 18:53 

Ответить с цитатой 

Attrition / A Tricky Business
Жанр: Darkwave, Electro, Industrial
Страна-производитель диска: Italy
Год издания диска: 1991
Издатель (лейбл): Contempo Records
Номер по каталогу: Contedisc 175
Страна: England
Аудио кодек: FLAC (*.flac)
Тип рипа: image+.cue
Битрейт аудио: lossless
Продолжительность: 55'56"
Источник (релизер): личный диск
Наличие сканов в содержимом раздачи: нет
Треклист:
1 Thin Red Line 4:23
2 Right Hand Man 4:09
Featuring [Right Hand Lady] - Jennifer Raven
3 Scenario 4:23
4 First Love 4:39
Voice [Laughs] - Natalie (9)
5 A Girl Called Harmony 5:08
6 The Rising Tide (I. Recollection / II. The Tide Is Rising) 5:40
Music By - Ashley Niblock , Martin Bowes
7 Legitimate Son 5:02
8 Hush 4:59
9 Something In My Eye 5:37
Saxophone [Midi Sax] - Ady Coles
Extra Tracks
10 Right Hand Man (Rough Version) 4:09
Featuring [Right Hand Lady] - Jennifer Raven
11 Under The Bridge 4:29
Featuring [Introducing] - Jennifer Raven
Music By - Martin Bowes , Peter Morris (3)
12 Resurrection (Reprise) 3:12
Код:
Exact Audio Copy V0.99 prebeta 5 from 4. May 2009
EAC extraction logfile from 19. November 2010, 19:29
Attrition / A Tricky Business
Used drive  : PIONEER DVD-RW  DVR-217F   Adapter: 1  ID: 0
Read mode               : Secure
Utilize accurate stream : Yes
Defeat audio cache      : Yes
Make use of C2 pointers : No
Read offset correction                      : 96
Overread into Lead-In and Lead-Out          : No
Fill up missing offset samples with silence : Yes
Delete leading and trailing silent blocks   : No
Null samples used in CRC calculations       : Yes
Used interface                              : Native Win32 interface for Win NT & 2000
Used output format              : User Defined Encoder
Selected bitrate                : 768 kBit/s
Quality                         : High
Add ID3 tag                     : No
Command line compressor         : C:\Program Files\Exact Audio Copy\FLAC\FLAC.EXE
Additional command line options : -6 -V -T "ARTIST=%a" -T "TITLE=%t" -T "ALBUM=%g" -T "DATE=%y" -T "TRACKNUMBER=%n" -T "GENRE=%m" -T "COMMENT=%e" %s -o %d
TOC of the extracted CD
     Track |   Start  |  Length  | Start sector | End sector
    ---------------------------------------------------------
        1  |  0:00.00 |  4:23.42 |         0    |    19766
        2  |  4:23.42 |  4:09.33 |     19767    |    38474
        3  |  8:33.00 |  4:23.20 |     38475    |    58219
        4  | 12:56.20 |  4:39.22 |     58220    |    79166
        5  | 17:35.42 |  5:08.35 |     79167    |   102301
        6  | 22:44.02 |  5:40.25 |    102302    |   127826
        7  | 28:24.27 |  5:02.50 |    127827    |   150526
        8  | 33:27.02 |  4:59.40 |    150527    |   172991
        9  | 38:26.42 |  5:37.58 |    172992    |   198324
       10  | 44:04.25 |  4:09.20 |    198325    |   217019
       11  | 48:13.45 |  4:29.70 |    217020    |   237264
       12  | 52:43.40 |  3:12.62 |    237265    |   251726
Range status and errors
Selected range
     Filename E:\c\lossless мои последние\Attrition - A Tricky Business\Attrition - A Tricky Business.wav
     Peak level 97.3 %
     Range quality 100.0 %
     Test CRC 2C2EAF18
     Copy CRC 2C2EAF18
     Copy OK
No errors occurred
AccurateRip summary
Track  1  accurately ripped (confidence 4)  [CD15F71F]
Track  2  accurately ripped (confidence 4)  [CB6E1002]
Track  3  accurately ripped (confidence 4)  [0EFEDE5F]
Track  4  accurately ripped (confidence 4)  [70A6263F]
Track  5  accurately ripped (confidence 4)  [488F161A]
Track  6  accurately ripped (confidence 4)  [BF70AD46]
Track  7  accurately ripped (confidence 4)  [C6BBE77A]
Track  8  accurately ripped (confidence 4)  [088CE085]
Track  9  accurately ripped (confidence 4)  [8B426F9B]
Track 10  accurately ripped (confidence 4)  [9B142B00]
Track 11  accurately ripped (confidence 4)  [A0EB8EBA]
Track 12  accurately ripped (confidence 4)  [CA754D39]
All tracks accurately ripped
End of status report
Recorded between October '90 - May '91 at Cabin Studios, Coventry, England.
Artwork By [Cover] - Mark P. Lomax
Electronics - Martin Bowes
Engineer - Mark Beswick
Keyboards - Martin Bowes
Lyrics By - Martin Bowes (tracks: 1 to 7, 9 to 11)
Mixed By - Mark Beswick
Music By - Martin Bowes (tracks: 1 to 5, 7 to 10, 12)
Producer - Martin Bowes
Vocals - Julia Waller* , Martin Bowes
Правила, инструкции, FAQ!!!
Торрент  Добавлен [26 июн 2020, 18:53] Скачать торрент Магнет ссылка
Скачать торрент
[ Размер 14.81 КБ / Просмотров 7 ]

Статус
Проверен 
 
Размер  363.3 МБ
Приватный: Нет (DHT включён)
.torrent скачан  0
 


     Отправить личное сообщение
   
Страница 1 из 1
Показать сообщения за:  Поле сортировки  
Начать новую тему Ответить на тему


Сейчас этот форум просматривают: нет зарегистрированных пользователей и гости: 0


Вы не можете начинать темы
Вы не можете отвечать на сообщения
Вы не можете редактировать свои сообщения
Вы не можете удалять свои сообщения
Вы не можете добавлять вложения

Перейти:  
cron