Начать новую тему Ответить на тему
Статистика раздачи
Размер: 173.12 МБ | Добавлен: 26 июн 2020, 17:58 | Скачали: 0
Сидеров: 0  [0 байт/сек]    Личеров: 0  [0 байт/сек]
Пред. тема | След. тема 

Автор
Сообщение

СообщениеДобавлено: 26 июн 2020, 17:58 

Ответить с цитатой 

Schwarzblut / Sehlenwolf
Жанр: Darkwave / EBM / Industrial
Страна-производитель диска: Netherlands
Год издания: 2008
Издатель (лейбл): Self-released
Номер по каталогу: SWCD081
Страна: Netherlands
Аудиокодек: FLAC (*.flac)
Тип рипа: image+.cue
Битрейт аудио: lossless
Продолжительность: 25:45
Источник (релизер): Собственный Диск
Наличие сканов в содержимом раздачи: нет
Треклист:
01. Der Abschied
02. Nahe Des Geliebten
03. Muss Es Eine Trennung Geben
04. Kontrast
05. Dammrung Senkte Sich Von Oben
Код:
Exact Audio Copy V1.0 beta 3 from 29. August 2011
EAC extraction logfile from 29. June 2013, 12:58
Schwarzblut / Sehlenwolf
Used drive  : HP      DVD Writer 1170d   Adapter: 2  ID: 0
Read mode               : Secure
Utilize accurate stream : Yes
Defeat audio cache      : Yes
Make use of C2 pointers : No
Read offset correction                      : 6
Overread into Lead-In and Lead-Out          : No
Fill up missing offset samples with silence : Yes
Delete leading and trailing silent blocks   : No
Null samples used in CRC calculations       : Yes
Used interface                              : Native Win32 interface for Win NT & 2000
Used output format              : User Defined Encoder
Selected bitrate                : 1024 kBit/s
Quality                         : High
Add ID3 tag                     : No
Command line compressor         : C:\Program Files\Exact Audio Copy\FLAC\FLAC.EXE
Additional command line options : -V -8 -T "Date=%year%" -T "Genre=%genre%" %source%
TOC of the extracted CD
     Track |   Start  |  Length  | Start sector | End sector
    ---------------------------------------------------------
        1  |  0:00.00 |  4:03.39 |         0    |    18263
        2  |  4:03.39 |  6:11.22 |     18264    |    46110
        3  | 10:14.61 |  4:47.12 |     46111    |    67647
        4  | 15:01.73 |  5:49.10 |     67648    |    93832
        5  | 20:51.08 |  4:54.62 |     93833    |   115944
Range status and errors
Selected range
     Filename C:\Users\Dima\Music\Schwarzblut - Sehlenwolf.wav
     Peak level 98.4 %
     Extraction speed 5.5 X
     Range quality 100.0 %
     Test CRC 376CCCA1
     Copy CRC 376CCCA1
     Copy OK
No errors occurred
AccurateRip summary
Track  1  not present in database
Track  2  not present in database
Track  3  not present in database
Track  4  not present in database
Track  5  not present in database
None of the tracks are present in the AccurateRip database
End of status report
---- CUETools DB Plugin V2.1.3
[CTDB TOCID: Bw4X33WNPlC_E0Q5.HVvsIKMyKw-] disk not present in database, Submit result: Bw4X33WNPlC_E0Q5.HVvsIKMyKw- has been uploaded
==== Log checksum 97AAFCFD625547D258482BA547B397230FE33350B46C9FCC627ED1B8A77B8442 ====
Правила, инструкции, FAQ!!!
Торрент  Добавлен [26 июн 2020, 17:58] Скачать торрент Магнет ссылка
Скачать торрент
[ Размер 14.21 КБ / Просмотров 12 ]

Статус
Проверен 
 
Размер  173.12 МБ
Приватный: Нет (DHT включён)
.torrent скачан  0
 


     Отправить личное сообщение
   
Страница 1 из 1
Показать сообщения за:  Поле сортировки  
Начать новую тему Ответить на тему


Сейчас этот форум просматривают: нет зарегистрированных пользователей и гости: 0


Вы не можете начинать темы
Вы не можете отвечать на сообщения
Вы не можете редактировать свои сообщения
Вы не можете удалять свои сообщения
Вы не можете добавлять вложения

Перейти:  
cron