Начать новую тему Ответить на тему
Статистика раздачи
Размер: 645.16 МБ | Добавлен: 26 июн 2020, 17:58 | Скачали: 0
Сидеров: 0  [0 байт/сек]    Личеров: 0  [0 байт/сек]
Пред. тема | След. тема 

Автор
Сообщение

СообщениеДобавлено: 26 июн 2020, 17:58 

Ответить с цитатой 

Schwarzblut / Maschinenwesen (Limited Edition)
Жанр: Darkwave, EBM, Industrial
Страна-производитель диска: Belgium
Год издания: 2012
Издатель (лейбл): Alfa Matrix
Номер по каталогу: AM 2178DCD
Страна: Netherlands
Аудиокодек: FLAC (*.flac)
Тип рипа: image+.cue
Битрейт аудио: lossless
Продолжительность: 52:59/47:00
Источник (релизер): Собственный Диск
Наличие сканов в содержимом раздачи: нет
Треклист:
Код:
 01. Schlusspoetik
 02. Ein Schatten
 03. Der Schwere Abend
 04. Nomen Est Omen
 05. Heimfahrt
 06. Die Fabrik
 07. An Den Todesengel
 08. Der Schwarze Tod
 09. Einst
 10. Gesang Der Geister Uber Den Wassern: I Des Menschen Seele (Adagio)
 11. Gesang Der Geister Uber Den Wassern: II Stromt Von Der Hohen (Scherzo)
 12. Gesang Der Geister Uber Den Wassern: III Schicksal Des Menschen (Rondo)
 
Код:
 01. Der Schwere Abend (Psy'Aviah Remix)
 02. An Den Todesengel (amGod Remix)
 03. Der Schwarze Tod (Die Sektor Remix)
 04. Gesang Der Geister Uber Den Wassern (Carsten Altena Remix)
 05. An Den Todesengel (Contrast Remix)
 06. Ein Schatten (Neikka RPM Remix)
 07. Schlusspoetik (Consumer Junk Remix)
 08. Die Fabrik (Niels Achtereekte Remix)
 09. Schlusspoetik (Misery Remix)
 10. Nomen Est Omen (Fieke Van Den Hurk Remix)
 
Код:
Exact Audio Copy V1.0 beta 3 from 29. August 2011
EAC extraction logfile from 7. July 2013, 17:57
Schwarzblut / Maschinenwesen (Limited Edition) CD 1
Used drive : HP DVD Writer 1170d Adapter: 2 ID: 0
Read mode : Secure
Utilize accurate stream : Yes
Defeat audio cache : Yes
Make use of C2 pointers : No
Read offset correction : 6
Overread into Lead-In and Lead-Out : No
Fill up missing offset samples with silence : Yes
Delete leading and trailing silent blocks : No
Null samples used in CRC calculations : Yes
Used interface : Native Win32 interface for Win NT & 2000
Used output format : User Defined Encoder
Selected bitrate : 1024 kBit/s
Quality : High
Add ID3 tag : No
Command line compressor : C:\Program Files\Exact Audio Copy\FLAC\FLAC.EXE
Additional command line options : -V -8 -T "Date=%year%" -T "Genre=%genre%" %source%
TOC of the extracted CD
Track | Start | Length | Start sector | End sector
---------------------------------------------------------
1 | 0:00.00 | 4:43.21 | 0 | 21245
2 | 4:43.21 | 4:22.34 | 21246 | 40929
3 | 9:05.55 | 4:37.47 | 40930 | 61751
4 | 13:43.27 | 5:10.34 | 61752 | 85035
5 | 18:53.61 | 5:20.30 | 85036 | 109065
6 | 24:14.16 | 4:21.25 | 109066 | 128665
7 | 28:35.41 | 4:21.44 | 128666 | 148284
8 | 32:57.10 | 4:59.29 | 148285 | 170738
9 | 37:56.39 | 5:10.14 | 170739 | 194002
10 | 43:06.53 | 2:38.49 | 194003 | 205901
11 | 45:45.27 | 1:39.04 | 205902 | 213330
12 | 47:24.31 | 5:35.43 | 213331 | 238498
Range status and errors
Selected range
Filename C:\Users\Dima\Music\Schwarzblut - Maschinenwesen (Limited Edition) CD 1.wav
Peak level 99.2 %
Extraction speed 5.4 X
Range quality 100.0 %
Test CRC 459A1501
Copy CRC 459A1501
Copy OK
No errors occurred
AccurateRip summary
Track 1 not present in database
Track 2 not present in database
Track 3 not present in database
Track 4 not present in database
Track 5 not present in database
Track 6 not present in database
Track 7 not present in database
Track 8 not present in database
Track 9 not present in database
Track 10 not present in database
Track 11 not present in database
Track 12 not present in database
None of the tracks are present in the AccurateRip database
End of status report
---- CUETools DB Plugin V2.1.3
[CTDB TOCID: avLFFOUyrIiVxFm8zW.ReCzO350-] disk not present in database, Submit result: avLFFOUyrIiVxFm8zW.ReCzO350- has been uploaded
==== Log checksum FB18E149CE9EF3686F61752BB15ED86DA4CA4BBCFEF4DD3724D418F27E474C2A ====
Код:
Exact Audio Copy V1.0 beta 3 from 29. August 2011
EAC extraction logfile from 7. July 2013, 18:31
Schwarzblut / Maschinenwesen (Limited Edition) CD 2-Sondermaschinen
Used drive  : HP      DVD Writer 1170d   Adapter: 2  ID: 0
Read mode               : Secure
Utilize accurate stream : Yes
Defeat audio cache      : Yes
Make use of C2 pointers : No
Read offset correction                      : 6
Overread into Lead-In and Lead-Out          : No
Fill up missing offset samples with silence : Yes
Delete leading and trailing silent blocks   : No
Null samples used in CRC calculations       : Yes
Used interface                              : Native Win32 interface for Win NT & 2000
Used output format              : User Defined Encoder
Selected bitrate                : 1024 kBit/s
Quality                         : High
Add ID3 tag                     : No
Command line compressor         : C:\Program Files\Exact Audio Copy\FLAC\FLAC.EXE
Additional command line options : -V -8 -T "Date=%year%" -T "Genre=%genre%" %source%
TOC of the extracted CD
     Track |   Start  |  Length  | Start sector | End sector
    ---------------------------------------------------------
        1  |  0:00.00 |  4:05.48 |         0    |    18422
        2  |  4:05.48 |  5:09.62 |     18423    |    41659
        3  |  9:15.35 |  4:37.19 |     41660    |    62453
        4  | 13:52.54 |  5:22.31 |     62454    |    86634
        5  | 19:15.10 |  4:23.02 |     86635    |   106361
        6  | 23:38.12 |  4:27.06 |    106362    |   126392
        7  | 28:05.18 |  5:03.09 |    126393    |   149126
        8  | 33:08.27 |  3:07.42 |    149127    |   163193
        9  | 36:15.69 |  5:30.25 |    163194    |   187968
       10  | 41:46.19 |  5:14.07 |    187969    |   211525
Range status and errors
Selected range
     Filename C:\Users\Dima\Music\Schwarzblut - Maschinenwesen (Limited Edition) CD 2-Sondermaschinen.wav
     Peak level 99.2 %
     Extraction speed 5.3 X
     Range quality 99.9 %
     Test CRC C60EE621
     Copy CRC C60EE621
     Copy OK
No errors occurred
AccurateRip summary
Track  1  not present in database
Track  2  not present in database
Track  3  not present in database
Track  4  not present in database
Track  5  not present in database
Track  6  not present in database
Track  7  not present in database
Track  8  not present in database
Track  9  not present in database
Track 10  not present in database
None of the tracks are present in the AccurateRip database
End of status report
---- CUETools DB Plugin V2.1.3
[CTDB TOCID: Wvom4Sr9LD0Rys_p0HkWW3u4wnA-] disk not present in database, Submit result: Wvom4Sr9LD0Rys_p0HkWW3u4wnA- has been uploaded
==== Log checksum D3B1ED4A4A33919535F5D4E008EE8C2339DBF02375152F934D020772B17007F9 ====
Правила, инструкции, FAQ!!!
Торрент  Добавлен [26 июн 2020, 17:58] Скачать торрент Магнет ссылка
Скачать торрент
[ Размер 14.23 КБ / Просмотров 10 ]

Статус
Проверен 
 
Размер  645.16 МБ
Приватный: Нет (DHT включён)
.torrent скачан  0
 


     Отправить личное сообщение
   
Страница 1 из 1
Показать сообщения за:  Поле сортировки  
Начать новую тему Ответить на тему


Сейчас этот форум просматривают: нет зарегистрированных пользователей и гости: 0


Вы не можете начинать темы
Вы не можете отвечать на сообщения
Вы не можете редактировать свои сообщения
Вы не можете удалять свои сообщения
Вы не можете добавлять вложения

Перейти:  
cron