Начать новую тему Ответить на тему
Статистика раздачи
Размер: 1.57 ГБ | Добавлен: 26 июн 2020, 18:00 | Скачали: 0
Сидеров: 0  [0 байт/сек]    Личеров: 0  [0 байт/сек]
Пред. тема | След. тема 

Автор
Сообщение

СообщениеДобавлено: 26 июн 2020, 18:00 

Ответить с цитатой 

Das Ich - 5 релизов
Жанр: Darkwave
Производитель диска: Германия
Аудио кодек: FLAC
Тип рипа: tracks+.cue
Битрейт аудио: lossless
Продолжительность: 03:41:13
Трэклист:
#777Продолжительность: 00:21:32
01. Von der Armut [Single Edit] (5:32)
02. Von der Armut [Ext. Edit] (6:21)
03. Der Schrei (5:35)
04. Von der Armut [Rev. Edit] (4:05)
Exact Audio Copy V0.99 prebeta 4 from 23. January 2008
EAC extraction logfile from 22. July 2009, 20:07
Das Ich / Stigma
Used drive : ATAPI DVD A DH18A1P Adapter: 0 ID: 0
Read mode : Secure
Utilize accurate stream : Yes
Defeat audio cache : Yes
Make use of C2 pointers : No
Read offset correction : 6
Overread into Lead-In and Lead-Out : No
Fill up missing offset samples with silence : Yes
Delete leading and trailing silent blocks : No
Null samples used in CRC calculations : No
Used interface : Native Win32 interface for Win NT & 2000
Gap handling : Appended to previous track
Used output format : User Defined Encoder
Selected bitrate : 1024 kBit/s
Quality : High
Add ID3 tag : No
Command line compressor : C:\Programme\FLAC\flac.exe
Additional command line options : -5 -T "Artist=%a" -T "Title=%t" -T "Album=%g" -T "Date=%y" -T "Tracknumber=%n" -T "Genre=%m" %s -o %d
TOC of the extracted CD
Track | Start | Length | Start sector | End sector
---------------------------------------------------------
1 | 0:00.30 | 5:31.38 | 30 | 24892
2 | 5:31.68 | 6:21.15 | 24893 | 53482
3 | 11:53.08 | 5:35.16 | 53483 | 78623
4 | 17:28.24 | 4:04.53 | 78624 | 96976
Track 1
Filename C:\Musik\Das Ich (1994) Stigma\01. Von der Armut [Single Edit].wav
Pre-gap length 0:00:02.30
Peak level 96.7 %
Track quality 100.0 %
Test CRC 546BC1A3
Copy CRC 546BC1A3
Accurately ripped (confidence 4) [2AD80276]
Copy OK
Track 2
Filename C:\Musik\Das Ich (1994) Stigma\02. Von der Armut [Ext. Edit].wav
Peak level 99.3 %
Track quality 99.9 %
Test CRC A19B19DE
Copy CRC A19B19DE
Accurately ripped (confidence 4) [4FDA77E3]
Copy OK
Track 3
Filename C:\Musik\Das Ich (1994) Stigma\03. Der Schrei.wav
Peak level 99.9 %
Track quality 100.0 %
Test CRC F4A78950
Copy CRC F4A78950
Accurately ripped (confidence 4) [62F9EBB9]
Copy OK
Track 4
Filename C:\Musik\Das Ich (1994) Stigma\04. Von der Armut [Rev. Edit].wav
Peak level 99.9 %
Track quality 99.9 %
Test CRC 1D8F2D77
Copy CRC 1D8F2D77
Accurately ripped (confidence 4) [5C6E66E8]
Copy OK
All tracks accurately ripped
No errors occurred
End of status report
#777Продолжительность: 01:08:52
01. Sagenlicht (5:05)
02. Von der Armut (7:03)
03. Dein Leben (6:49)
04. Das Ich im Ich (5:24)
05. Unschuld Erde (6:47)
06. Kain und Abel (6:57)
07. Lügen und das Ich (3:44)
08. Der Schrei (6:07)
09. Jericho (3:56)
10. Gottes Tod (8:30)
11. Des Satans neue Kleider (8:31)
Exact Audio Copy V0.99 prebeta 4 from 23. January 2008
EAC extraction logfile from 16. May 2009, 18:56
Das Ich / Feuer
Used drive : _NEC DVD_RW ND-3540A Adapter: 1 ID: 0
Read mode : Secure
Utilize accurate stream : Yes
Defeat audio cache : Yes
Make use of C2 pointers : No
Read offset correction : 48
Overread into Lead-In and Lead-Out : No
Fill up missing offset samples with silence : Yes
Delete leading and trailing silent blocks : No
Null samples used in CRC calculations : Yes
Used interface : Installed external ASPI interface
Gap handling : Appended to previous track
Used output format : User Defined Encoder
Selected bitrate : 192 kBit/s
Quality : High
Add ID3 tag : No
Command line compressor : C:\Program Files\FLAC\flac.exe
Additional command line options : -8 -V -T "ARTIST=%a" -T "TITLE=%t" -T "ALBUM=%g" -T "DATE=%y" -T "TRACKNUMBER=%n" -T "GENRE=%m" -T "COMMENT=EAC FLAC -8" %s
TOC of the extracted CD
Track | Start | Length | Start sector | End sector
---------------------------------------------------------
1 | 0:00.00 | 5:05.37 | 0 | 22911
2 | 5:05.37 | 7:02.58 | 22912 | 54619
3 | 12:08.20 | 6:48.40 | 54620 | 85259
4 | 18:56.60 | 5:24.15 | 85260 | 109574
5 | 24:21.00 | 6:47.17 | 109575 | 140116
6 | 31:08.17 | 6:57.20 | 140117 | 171411
7 | 38:05.37 | 3:43.38 | 171412 | 188174
8 | 41:49.00 | 6:06.72 | 188175 | 215696
9 | 47:55.72 | 3:56.08 | 215697 | 233404
10 | 51:52.05 | 8:29.42 | 233405 | 271621
11 | 60:21.47 | 8:31.00 | 271622 | 309946
Track 1
Filename D:\Music\FLAC\CD Collection\Das Ich - Feuer\01 - Sagenlicht.wav
Pre-gap length 0:00:02.00
Peak level 98.8 %
Track quality 99.9 %
Test CRC 28C1699F
Copy CRC 28C1699F
Cannot be verified as accurate (confidence 4) [C4F70218], AccurateRip returned [D5AF3F78]
Copy OK
Track 2
Filename D:\Music\FLAC\CD Collection\Das Ich - Feuer\02 - Von der Armut.wav
Peak level 98.8 %
Track quality 100.0 %
Test CRC 25E9712E
Copy CRC 25E9712E
Cannot be verified as accurate (confidence 4) [A3D75918], AccurateRip returned [CB7F63E0]
Copy OK
Track 3
Filename D:\Music\FLAC\CD Collection\Das Ich - Feuer\03 - Dein Leben.wav
Peak level 98.4 %
Track quality 100.0 %
Test CRC CE4282B7
Copy CRC CE4282B7
Cannot be verified as accurate (confidence 4) [94D246B3], AccurateRip returned [80AFF61B]
Copy OK
Track 4
Filename D:\Music\FLAC\CD Collection\Das Ich - Feuer\04 - Das Ich im Ich.wav
Peak level 98.8 %
Track quality 100.0 %
Test CRC CACB0FDE
Copy CRC CACB0FDE
Cannot be verified as accurate (confidence 4) [D9906EBF], AccurateRip returned [8FEF0EBF]
Copy OK
Track 5
Filename D:\Music\FLAC\CD Collection\Das Ich - Feuer\05 - Unschuld Erde.wav
Peak level 98.8 %
Track quality 100.0 %
Test CRC 7C908626
Copy CRC 7C908626
Cannot be verified as accurate (confidence 4) [85DAD882], AccurateRip returned [DB3161DA]
Copy OK
Track 6
Filename D:\Music\FLAC\CD Collection\Das Ich - Feuer\06 - Kain und Abel.wav
Peak level 98.8 %
Track quality 100.0 %
Test CRC 2C04D5F4
Copy CRC 2C04D5F4
Cannot be verified as accurate (confidence 4) [98F066C2], AccurateRip returned [75E53E12]
Copy OK
Track 7
Filename D:\Music\FLAC\CD Collection\Das Ich - Feuer\07 - Lьgen und das Ich.wav
Peak level 98.8 %
Track quality 99.9 %
Test CRC 917AEA09
Copy CRC 917AEA09
Cannot be verified as accurate (confidence 4) [7CF3A0DB], AccurateRip returned [20E64DDB]
Copy OK
Track 8
Filename D:\Music\FLAC\CD Collection\Das Ich - Feuer\08 - Der Schrei.wav
Pre-gap length 0:00:02.28
Peak level 98.8 %
Track quality 100.0 %
Test CRC 9BB2FA7A
Copy CRC 9BB2FA7A
Cannot be verified as accurate (confidence 4) [51F92A72], AccurateRip returned [986C3AEA]
Copy OK
Track 9
Filename D:\Music\FLAC\CD Collection\Das Ich - Feuer\09 - Jericho.wav
Pre-gap length 0:00:05.72
Peak level 96.2 %
Track quality 99.9 %
Test CRC 1102B440
Copy CRC 1102B440
Cannot be verified as accurate (confidence 4) [E96FC8CA], AccurateRip returned [BD181142]
Copy OK
Track 10
Filename D:\Music\FLAC\CD Collection\Das Ich - Feuer\10 - Gottes Tod.wav
Pre-gap length 0:00:02.20
Peak level 98.8 %
Track quality 100.0 %
Test CRC 52A75FAF
Copy CRC 52A75FAF
Cannot be verified as accurate (confidence 4) [AF58B7F0], AccurateRip returned [1A0FF0C0]
Copy OK
Track 11
Filename D:\Music\FLAC\CD Collection\Das Ich - Feuer\11 - Des Satans neue Kleider.wav
Pre-gap length 0:00:02.37
Peak level 98.8 %
Track quality 100.0 %
Test CRC 025BEDC7
Copy CRC 025BEDC7
Cannot be verified as accurate (confidence 4) [B287CF24], AccurateRip returned [E7B5FF1C]
Copy OK
No tracks could be verified as accurate
You may have a different pressing from the one(s) in the database
No errors occurred
End of status report
#777Продолжительность: 00:17:57
01. destillat (club version) (4:04)
02. destillat (x-tended version) (5:05)
03. destillat (original version) (4:20)
04. chroma (soldano version) (4:28)
Exact Audio Copy V0.99 prebeta 5 from 4. May 2009
EAC extraction logfile from 16. May 2009, 22:51
Das Ich / Destillat
Used drive : DVDRW IDE1004 Adapter: 1 ID: 1
Read mode : Secure
Utilize accurate stream : Yes
Defeat audio cache : Yes
Make use of C2 pointers : No
Read offset correction : 12
Overread into Lead-In and Lead-Out : No
Fill up missing offset samples with silence : Yes
Delete leading and trailing silent blocks : No
Null samples used in CRC calculations : Yes
Used interface : Installed external ASPI interface
Gap handling : Appended to previous track
Used output format : User Defined Encoder
Selected bitrate : 128 kBit/s
Quality : High
Add ID3 tag : No
Command line compressor : C:\Programme\Exact Audio Copy\FLAC\FLAC.EXE
Additional command line options : -V -8 -T "artist=%a" -T "title=%t" -T "album=%g" -T "date=%y" -T "tracknumber=%n" -T "genre=%m" %s
TOC of the extracted CD
Track | Start | Length | Start sector | End sector
---------------------------------------------------------
1 | 0:00.00 | 4:04.25 | 0 | 18324
2 | 4:04.25 | 5:05.07 | 18325 | 41206
3 | 9:09.32 | 4:19.58 | 41207 | 60689
4 | 13:29.15 | 4:28.15 | 60690 | 80804
Track 1
Filename C:\EAC\Das Ich - 1998 - Destillat [FLAC]\01 - destillat (club version).wav
Pre-gap length 0:00:02.00
Peak level 100.0 %
Track quality 100.0 %
Test CRC F41BB6F6
Copy CRC F41BB6F6
Accurately ripped (confidence 1) [C461FFC6]
Copy OK
Track 2
Filename C:\EAC\Das Ich - 1998 - Destillat [FLAC]\02 - destillat (x-tended version).wav
Pre-gap length 0:00:01.50
Peak level 96.5 %
Track quality 100.0 %
Test CRC FFCDC8DB
Copy CRC FFCDC8DB
Accurately ripped (confidence 1) [514B691A]
Copy OK
Track 3
Filename C:\EAC\Das Ich - 1998 - Destillat [FLAC]\03 - destillat (original version).wav
Pre-gap length 0:00:01.22
Peak level 94.4 %
Track quality 100.0 %
Test CRC 4B7158F6
Copy CRC 4B7158F6
Accurately ripped (confidence 1) [5172DDC1]
Copy OK
Track 4
Filename C:\EAC\Das Ich - 1998 - Destillat [FLAC]\04 - chroma (soldano version).wav
Pre-gap length 0:00:01.10
Peak level 97.7 %
Track quality 100.0 %
Test CRC 4C7C5885
Copy CRC 4C7C5885
Accurately ripped (confidence 1) [57B73BE0]
Copy OK
All tracks accurately ripped
No errors occurred
End of status report
#777Продолжительность: 01:03:08
01. Gott Ist Tot (5:40)
02. Destillat (4:05)
03. Von Der Armut (4:57)
04. Der Schrei (5:21)
05. Kain und Abel (5:33)
06. Unschuld Erde (6:07)
07. Erde Ruft (3:59)
08. Die Propheten (7:20)
09. Schwanenschrei (6:02)
10. Bin Ich Es Denn (5:21)
11. Kindgott (4:20)
12. Re_animat (4:23)
EAC extraction logfile from 26. January 2007, 10:47 for CD
Das Ich / Re_Kapitulation 89-99
Used drive : LITE-ON DVDRW LDW-811S Adapter: 0 ID: 2
Read mode : Secure with NO C2, accurate stream, disable cache
Read offset correction : 12
Overread into Lead-In and Lead-Out : No
Used output format : D:\Program Files\Exact Audio Copy\flac.exe (User Defined Encoder)
128 kBit/s
Additional command line options : -V -8 -T "artist=%a" -T "title=%t" -T "album=%g" -T "date=%y" -T "tracknumber=%n" -T "genre=%m" %s
Other options :
Fill up missing offset samples with silence : Yes
Delete leading and trailing silent blocks : No
Installed external ASPI interface
Track 1
Filename D:\Audio\Music\Das Ich - Re_Kapitulation\01 - Das Ich - Gott Ist Tot.wav
Pre-gap length 0:00:02.00
Peak level 100.0 %
Track quality 100.0 %
Test CRC 27A4CB21
Copy CRC 27A4CB21
Copy OK
Track 2
Filename D:\Audio\Music\Das Ich - Re_Kapitulation\02 - Das Ich - Destillat.wav
Pre-gap length 0:00:02.00
Peak level 100.0 %
Track quality 100.0 %
Test CRC 25454BDE
Copy CRC 25454BDE
Copy OK
Track 3
Filename D:\Audio\Music\Das Ich - Re_Kapitulation\03 - Das Ich - Von Der Armut.wav
Pre-gap length 0:00:02.00
Peak level 100.0 %
Track quality 99.9 %
Test CRC 14C1EAE6
Copy CRC 14C1EAE6
Copy OK
Track 4
Filename D:\Audio\Music\Das Ich - Re_Kapitulation\04 - Das Ich - Der Schrei.wav
Pre-gap length 0:00:02.00
Peak level 100.0 %
Track quality 100.0 %
Test CRC 6EDC912E
Copy CRC 6EDC912E
Copy OK
Track 5
Filename D:\Audio\Music\Das Ich - Re_Kapitulation\05 - Das Ich - Kain und Abel.wav
Pre-gap length 0:00:02.00
Peak level 100.0 %
Track quality 100.0 %
Test CRC DC39A8B7
Copy CRC DC39A8B7
Copy OK
Track 6
Filename D:\Audio\Music\Das Ich - Re_Kapitulation\06 - Das Ich - Unschuld Erde.wav
Pre-gap length 0:00:02.00
Peak level 98.7 %
Track quality 100.0 %
Test CRC 15CB2E70
Copy CRC 15CB2E70
Copy OK
Track 7
Filename D:\Audio\Music\Das Ich - Re_Kapitulation\07 - Das Ich - Erde Ruft.wav
Pre-gap length 0:00:02.00
Peak level 99.9 %
Track quality 100.0 %
Test CRC 07A85BCF
Copy CRC 07A85BCF
Copy OK
Track 8
Filename D:\Audio\Music\Das Ich - Re_Kapitulation\08 - Das Ich - Die Propheten.wav
Pre-gap length 0:00:02.00
Peak level 100.0 %
Track quality 100.0 %
Test CRC 2FF79697
Copy CRC 2FF79697
Copy OK
Track 9
Filename D:\Audio\Music\Das Ich - Re_Kapitulation\09 - Das Ich - Schwanenschrei.wav
Pre-gap length 0:00:02.00
Peak level 100.0 %
Track quality 100.0 %
Test CRC 040EC743
Copy CRC 040EC743
Copy OK
Track 10
Filename D:\Audio\Music\Das Ich - Re_Kapitulation\10 - Das Ich - Bin Ich Es Denn.wav
Pre-gap length 0:00:02.00
Peak level 100.0 %
Track quality 100.0 %
Test CRC 2BEFC199
Copy CRC 2BEFC199
Copy OK
Track 11
Filename D:\Audio\Music\Das Ich - Re_Kapitulation\11 - Das Ich - Kindgott.wav
Pre-gap length 0:00:02.00
Peak level 100.0 %
Track quality 100.0 %
Test CRC 8C1B6BE2
Copy CRC 8C1B6BE2
Copy OK
Track 12
Filename D:\Audio\Music\Das Ich - Re_Kapitulation\12 - Das Ich - Re_animat.wav
Pre-gap length 0:00:02.00
Peak level 100.0 %
Track quality 99.9 %
Test CRC D6B1F562
Copy CRC D6B1F562
Copy OK
No errors occured
End of status report
#777Продолжительность: 00:49:41
01. Schwarzer Stern (5:27)
02. Uterus (vergib mir) (5:42)
03. Meine Wiege (5:08)
04. Vulkan (4:27)
05. Seele Tanzt (lass mich frei) (4:56)
06. Tot Im Kopf (4:45)
07. Sehnsucht (4:54)
08. Fieber (stirb mit mir) (5:01)
09. Schwarzer Stern (by Terminal Choice) (5:01)
10. Vulkan (by :Wumpscut:) (4:19)
Exact Audio Copy V0.99 prebeta 4 from 23. January 2008
EAC extraction logfile from 11. June 2009, 21:48
Das Ich / Lava
Used drive : ATAPI DVD A DH18A1P Adapter: 0 ID: 0
Read mode : Secure
Utilize accurate stream : Yes
Defeat audio cache : Yes
Make use of C2 pointers : No
Read offset correction : 6
Overread into Lead-In and Lead-Out : No
Fill up missing offset samples with silence : Yes
Delete leading and trailing silent blocks : No
Null samples used in CRC calculations : No
Used interface : Native Win32 interface for Win NT & 2000
Gap handling : Appended to previous track
Used output format : User Defined Encoder
Selected bitrate : 1024 kBit/s
Quality : High
Add ID3 tag : No
Command line compressor : C:\Programme\FLAC\flac.exe
Additional command line options : -5 -T "Artist=%a" -T "Title=%t" -T "Album=%g" -T "Date=%y" -T "Tracknumber=%n" -T "Genre=%m" %s -o %d
TOC of the extracted CD
Track | Start | Length | Start sector | End sector
---------------------------------------------------------
1 | 0:00.00 | 5:27.20 | 0 | 24544
2 | 5:27.20 | 5:41.72 | 24545 | 50191
3 | 11:09.17 | 5:08.24 | 50192 | 73315
4 | 16:17.41 | 4:26.57 | 73316 | 93322
5 | 20:44.23 | 4:55.72 | 93323 | 115519
6 | 25:40.20 | 4:45.36 | 115520 | 136930
7 | 30:25.56 | 4:54.36 | 136931 | 159016
8 | 35:20.17 | 5:00.61 | 159017 | 181577
9 | 40:21.03 | 5:01.25 | 181578 | 204177
10 | 45:22.28 | 4:19.25 | 204178 | 223627
Track 1
Filename C:\Musik\Das Ich (2004) Lava\01. Schwarzer Stern.wav
Pre-gap length 0:00:02.00
Peak level 100.0 %
Track quality 100.0 %
Test CRC 18319B25
Copy CRC 18319B25
Accurately ripped (confidence 6) [4FF4B47C]
Copy OK
Track 2
Filename C:\Musik\Das Ich (2004) Lava\02. Uterus (vergib mir).wav
Pre-gap length 0:00:04.00
Peak level 100.0 %
Track quality 100.0 %
Test CRC BD32BE50
Copy CRC BD32BE50
Accurately ripped (confidence 6) [71935BD2]
Copy OK
Track 3
Filename C:\Musik\Das Ich (2004) Lava\03. Meine Wiege.wav
Pre-gap length 0:00:02.37
Peak level 100.0 %
Track quality 100.0 %
Test CRC 08DDB594
Copy CRC 08DDB594
Accurately ripped (confidence 6) [A0C97C7B]
Copy OK
Track 4
Filename C:\Musik\Das Ich (2004) Lava\04. Vulkan.wav
Pre-gap length 0:00:03.36
Peak level 100.0 %
Track quality 100.0 %
Test CRC AA1BD4EF
Copy CRC AA1BD4EF
Accurately ripped (confidence 6) [8936CE61]
Copy OK
Track 5
Filename C:\Musik\Das Ich (2004) Lava\05. Seele Tanzt (lass mich frei).wav
Pre-gap length 0:00:02.51
Peak level 100.0 %
Track quality 100.0 %
Test CRC A3012089
Copy CRC A3012089
Accurately ripped (confidence 6) [71E80520]
Copy OK
Track 6
Filename C:\Musik\Das Ich (2004) Lava\06. Tot Im Kopf.wav
Pre-gap length 0:00:02.74
Peak level 100.0 %
Track quality 100.0 %
Test CRC 394D6993
Copy CRC 394D6993
Accurately ripped (confidence 6) [0B5EF7E9]
Copy OK
Track 7
Filename C:\Musik\Das Ich (2004) Lava\07. Sehnsucht.wav
Pre-gap length 0:00:03.41
Peak level 100.0 %
Track quality 100.0 %
Test CRC 50AAEAFD
Copy CRC 50AAEAFD
Accurately ripped (confidence 6) [46A7C2F9]
Copy OK
Track 8
Filename C:\Musik\Das Ich (2004) Lava\08. Fieber (stirb mit mir).wav
Pre-gap length 0:00:03.13
Peak level 100.0 %
Track quality 99.9 %
Test CRC 342289CB
Copy CRC 342289CB
Accurately ripped (confidence 6) [6EF4DCB0]
Copy OK
Track 9
Filename C:\Musik\Das Ich (2004) Lava\09. Schwarzer Stern (by Terminal Choice).wav
Pre-gap length 0:00:03.12
Peak level 100.0 %
Track quality 100.0 %
Test CRC 2E7A141D
Copy CRC 2E7A141D
Accurately ripped (confidence 6) [C031AAC7]
Copy OK
Track 10
Filename C:\Musik\Das Ich (2004) Lava\10. Vulkan (by -Wumpscut-).wav
Pre-gap length 0:00:03.05
Peak level 100.0 %
Track quality 99.9 %
Test CRC 6EF1F1AE
Copy CRC 6EF1F1AE
Accurately ripped (confidence 6) [D49EFCA0]
Copy OK
All tracks accurately ripped
No errors occurred
End of status report


Группа Das Ich по праву считается самым заслуженным и именитым немецким готическим проектом и по популярности, пожалуй, уступает лишь любимцам готик-металлической аудитории - группе Lacrimosa. Известность и культовый статус Das Ich оправданны - группа, образованная в 1989 году в виде дуэта (по сути, коллектив остаётся дуэтом до сих пор), во многом была уникальна и всегда старалась идти своим путём. За пять лет до Rammsteins они уже активно использовали немецкоязычную лирику и мощный тевтонский саунд. Благодаря изобретенному ими сплаву жесткого индустриального звучания и готического симфонизма родился новый стиль готической музыки, электронная готика, или darkwavе.
Один из первых экспериментов по совмещению готики и металла тоже был создан при активном участии Das Ich - в виде их совместного проекта с немецкой метал-группой Atrocity. Отдельно стоит упомянуть уникальные по своему воздействию живые выступления Das Ich, в которых главным действующим лицом является вокалист и автор лирики - Штефан Акерман, в прошлом - профессиональный танцор, благодаря уникальной пластике и мимике создающий на сцене настоящие инфернальные образы. Основная тематика творчества группы - смерть, боль, страдание, главные источники вдохновения - Фридрих Ницше, Готфрид Бенн, Георг Тракль, Шарль Бодлер. Вторая половина дуэта - Бруно Крамм, не только потомственный музыкант, но и талантливый продюсер, работающий с множеством популярных gothic / metal групп: Atrocity, Saviour Machine, Goethes Erben, Sanguis et Cinis, Crematory, Theatre of Tragedy, Deine Lakaien. Вся кропотливая работа со звуком осуществляется в собственной студии - Danse Macabre, расположенной в старинном средневековом замке 12-го века, по совместительству являющемся и домом группы.
Das Ich стали настоящим явлением немецкой контр-культуры. Несмотря на то, что их последние альбомы с завидной регулярностью попадают на верхние строчки национальных и альтернативных чартов, группа до сих пор остается в андерграундной готической сцене и продолжает шокировать аудиторию даже сейчас, через десять лет после выхода дебютного провокационного макси-сингла ‘Satanische Verse’(‘Сатанинские Стихи’) (1991). При его создании музыканты черпали вдохновение в одноименном произведении Салмана Рушди, приговоренного к смерти мусульманскими духовными лидерами за богохульство. Однако настоящий успех был впереди. Дебютный альбом ‘Die Propheten’ (‘Пророки’) стал первым бестселлером в истории современной готической сцены. Он был продан тиражом более 30.000 экземпляров - и это в то время, когда готическая сцена переживала не лучшие времена! Этом альбом заложил основы концепции Das Ich. Его лирика была посвящена исканиям человеческой души, критике религиозной системы, выражению боли и страданий человека, музыка же представляла уникальный сплав раннего индустриального звучания и экспериментального готического саунда. В 1993 году выходит в свет макси-сингли ‘Stigma’ (‘Признак’), после чего группа едет в продолжительное турне по Европе и Америке, а также выступает на фестивале Питера Гэбриела WOMAD. Это турне закрепило их статус ‘апокалиптических эксцентриков’. Зрители смогли воочию убедиться в том, что живые выступления Das Ich отличаются необычайной мощью и инфернальной экспрессией. Последующие несколько лет были насыщены не только активной студийной работой, но и не менее частыми живыми выступлениями. Альбом 1994 года ‘Staub’ (‘Пыль’), созданный в период тяжелой депрессии обоих музыкантов, несмотря на свою мрачность попадает в немецкие национальные чарты и держится в них 11 недель!
Этот результат ещё в течение многих лет оставался недостижимым для групп из gothic/industrial области. Концертный альбом 1995 года ‘Feuer’ должен был продемонстрировать весь ‘живой’ потенциал группы, однако стал лишь бледной тенью их феерических представлений. Его название переводится как ‘Огонь’ - не правда ли, оно вызывает некоторые ассоциации с их соотечественниками, позже добившимися международного признания. В том же году Das Ich записывают альбом с известной немецкой металлической командой Atrocity - на тот момент это была первая совместная работа готической и металлической группы. Сейчас многие поклонники ‘готического металла’ воспринимают существование подобного синтеза как должное, но ещё семь лет назад это было рискованным экспериментом. К счастью, альбом ‘Die Liebe’ (‘Любовь’) оказался более чем удачным и открыл мир готической романтики для многих поклонников тяжелого металла.
Работа над следующим альбомом - ‘Egodram’ (‘Драма эго’) началась в 1996 году, но была отложена, поскольку Das Ich предложили записать саундтрэк к арт-хаус фильму ‘Das Ewige Licht’ (‘Вечный свет’). Саундтрэк вышел как альбом под названием ‘Das Innere Ich’ (‘Внутреннее Я’). В музыкальном плане он сильно отличался от других работ группы, представляя собой мрачнейшую атмосферную кино-симфонию. После выхода саундтрэка и небольшого турне по США, наконец-то появляется альбом ‘Egodram’ - это происходит в 1997 году. Альбом получается менее концептуальным и философским и более динамичным и даже танцевальным. До сих пор ‘Egodram’ считается самым ‘попсовым’ диском Das Ich (если к их музыке вообще можно применить этот термин). В поддержку альбома было выпущено два сингла - ‘Kindgott’ и ‘Destillat’ - последний и спустя пять лет остаётся одним из самых популярных танцевальных хитов на готических party!
Следующий диск стал практически полной противоположностью ‘Egodram’. Альбом ‘Morgue’ (‘Морг’), созданный на основе цикла стихотворений поэта-экспрессиониста Готтфрида Бенна, в противовес динамичным композициям ‘Egodram’, отличает мрачный экспериментальный симфонизм и болезенное звучание. В 1999-2000 годах выходит сначала сборник ‘Re-Kapitulation’, а потом и двойной сборник ремиксов ‘Re-Laborat’.
Над ремиксами Das Ich трудились звезды немецкой индустриальной и готической сцены - Deine Lakaien, Wumpscut, And One, In Strict Confidence, L’Ame Immortelle и многие другие.
В 2001 году Бруно Крамм выпускает сольный альбом проекта, скромно озаглавленного Kramm, под названием ‘Coeur’. Он удачно сочетает в себе gothic, synth и electro звучание. Поклонников Das Ich ждёт приятный сюрприз - оказывается, что ранее молчавший Бруно обладает очень приятным и чувственным вокалом. Сразу несколько трэков с альбома становятся хитами на готических танцполах, а Kramm выступает в качестве одного из хедлайнеров на крупнейшем немецком готическом фестивале Wave Gotik Treffen.
Альбом 2002-го года группы, провокационно названный Anti’Christ, выходит в 2002 году на лэйбле Massabre (в России выпущен по лицензии лэйблом Art Music Group). Anti’Christ в полной мере соединяет в себе черты старого и нового звучания Das Ich, являясь идеальным сплавом готики и индастриала. Концепция и имидж музыкантов как всегда провокационны - альбом становится наиболее удачной записью группы, в течение многих недель не покидая немецкие альтернативные чарты.
Конец 2002 / начало 2003 года группа проводит в Anti’Christ tour. Сразу после американских гастролей группа посетила Москву, где выступила с единственным концертом в клубе «Точка» 16-го февраля 2003.
Альбом "Lava" был выпущен в 2004 году, в двух версиях - "Lava: Ashe" и "Lava: Glut". Над одном из дисков были записаны традиционные версии песен, на втором - их же танцевальные ремиксы.
Последним на сегодняшний день номерным альбомом Das Ich является пластинка "Cabaret" (2006). После неё Крамм и Аккерман выпустили только EP под названием "Kannibale". В настоящее время группа работает над новым альбомом, озаглавленным "Ritual".
http://www.lastfm.ru/music/Das+Ich/+wiki
http://ru.wikipedia.org/wiki/Das_Ich
Постоянные участники:
Штефан Акерманн (Stefan Ackermann) — вокал, тексты песен
Бруно Крамм (Bruno Kramm) — музыка, инструменты, бэк-вокал
Прочие:
Таня Хан - с 1989 по 1990
Андреас Зибльхофф - с 1990 по 1993
Ансгар Ноэт - с 1994 по 1995
Чед Блинман - с 1994 по 1996
Даниэль Гальда (впоследствии - участник группы Skorbut) - с 1995 по 1999
Якоб Ланг - с 1998 по 1999
Михаэль Шмид - с 1999 по 2000
Нидий - с 2000 по 2001
Каин Габриэль Симон - с 2001 по 2006
Штефан Зигль - с 2006 по 2007
Ринго Мюллер - с 2006 по 2007
Марти Зоффкер - с 2007 - по нынешнее время

Das Ich на трекере
- другие релизы в Lossless: Satanische Verse, Staub, Das Innere Ich, Morgue, Re_Laborat, Anti'christ, Die Propheten, Relikt, Egodram, LAVA glut, Cabaret.
- дискография в MP3.
- Video: Reanimat, Lava: Addendum, Panopticum.
Правила, инструкции, FAQ!!!
Торрент  Добавлен [26 июн 2020, 18:00] Скачать торрент Магнет ссылка
Скачать торрент
[ Размер 22.87 КБ / Просмотров 6 ]

Статус
Проверен 
 
Размер  1.57 ГБ
Приватный: Нет (DHT включён)
.torrent скачан  0
 


     Отправить личное сообщение
   
Страница 1 из 1
Показать сообщения за:  Поле сортировки  
Начать новую тему Ответить на тему


Сейчас этот форум просматривают: нет зарегистрированных пользователей и гости: 0


Вы не можете начинать темы
Вы не можете отвечать на сообщения
Вы не можете редактировать свои сообщения
Вы не можете удалять свои сообщения
Вы не можете добавлять вложения

Перейти:  
cron