Начать новую тему Ответить на тему
Статистика раздачи
Размер: 1.89 ГБ | Добавлен: 26 июн 2020, 21:09 | Скачали: 1
Сидеров: 0  [0 байт/сек]    Личеров: 0  [0 байт/сек]
Пред. тема | След. тема 

Автор
Сообщение

СообщениеДобавлено: 26 июн 2020, 21:09 

Ответить с цитатой 

Das Ich - Satanische Verse

http://www.radikal.ru
Жанр: Darkwave
Год выпуска диска: 1990
Производитель диска: Germany
Аудио кодек: FLAC
Тип рипа: image+.cue
Битрейт аудио: lossless
Продолжительность: 43:48
Трэклист:
1. Gottes Tod
2. Des Satans Neue Kleider
3. Kain Und Abel
4. Jericho
5. Ein Tag Vergeht
6. Irrlicht
7. Sonne Mond Und Sterne
Exact Audio Copy V0.99 prebeta 4 from 23. January 2008
Отчёт EAC об извлечении, выполненном 6. марта 2009, 9:37
Das Ich / Satanische Verse
Дисковод: PIONEER DVD-RW DVR-112D Adapter: 0 ID: 1
Режим чтения : Достоверность
Использование точного потока : Да
Отключение кэша аудио : Да
Использование указателей C2 : Нет
Коррекция смещения при чтении : 48
Способность читать области Lead-in и Lead-out : Нет
Заполнение пропущенных сэмплов тишиной : Да
Удаление блоков с тишиной в начале и конце : Нет
При вычислениях CRC использовались нулевые сэмплы : Нет
Интерфейс : Встроенный Win32-интерфейс для Win NT/2000
Выходной формат : Внутренние WAV-операции
Формат сэмплов : 44.100 Гц; 16 бит; стерео
TOC извлечённого CD
Трек | Старт | Длительность | Начальный сектор | Конечный сектор
---------------------------------------------------------------------
1 | 0:00.00 | 8:10.65 | 0 | 36814
2 | 8:10.65 | 6:02.20 | 36815 | 63984
3 | 14:13.10 | 4:52.67 | 63985 | 85951
4 | 19:06.02 | 5:15.23 | 85952 | 109599
5 | 24:21.25 | 5:03.67 | 109600 | 132391
6 | 29:25.17 | 5:55.43 | 132392 | 159059
7 | 35:20.60 | 8:26.62 | 159060 | 197071
Характеристики диапазона извлечения и сообщения об ошибках
Выбранный диапазон
Имя файла C:\Documents and Settings\Индра\Мои документы\Моя музыка\Das Ich - Satanische Verse.wav
Пиковый уровень 98.5 %
Качество диапазона 99.9 %
CRC копии 5F0D6EA4
Копирование... OK
Ошибок не произошло
Конец отчёта




Das Ich - Staub

#777
Жанр: Darkwave
Год выпуска диска: 1994
Производитель диска: Germany
Аудио кодек: FLAC
Тип рипа: image+.cue
Битрейт аудио: lossless
Продолжительность: 40:23
Трэклист:
1. Sagenlicht
2. Unschuld Erde
3. Von Der Armut
4. Im Ich
5. Gier
6. Dein Leben
7. Aura
8. Staub
Exact Audio Copy V0.99 prebeta 4 from 23. January 2008
Отчёт EAC об извлечении, выполненном 6. марта 2009, 11:06
Das Ich / Staub
Дисковод: PIONEER DVD-RW DVR-112D Adapter: 0 ID: 1
Режим чтения : Достоверность
Использование точного потока : Да
Отключение кэша аудио : Да
Использование указателей C2 : Нет
Коррекция смещения при чтении : 48
Способность читать области Lead-in и Lead-out : Нет
Заполнение пропущенных сэмплов тишиной : Да
Удаление блоков с тишиной в начале и конце : Нет
При вычислениях CRC использовались нулевые сэмплы : Нет
Интерфейс : Встроенный Win32-интерфейс для Win NT/2000
Выходной формат : Внутренние WAV-операции
Формат сэмплов : 44.100 Гц; 16 бит; стерео
TOC извлечённого CD
Трек | Старт | Длительность | Начальный сектор | Конечный сектор
---------------------------------------------------------------------
1 | 0:00.00 | 5:19.20 | 0 | 23944
2 | 5:19.20 | 6:06.15 | 23945 | 51409
3 | 11:25.35 | 4:59.25 | 51410 | 73859
4 | 16:24.60 | 5:47.07 | 73860 | 99891
5 | 22:11.67 | 2:12.15 | 99892 | 109806
6 | 24:24.07 | 5:17.13 | 109807 | 133594
7 | 29:41.20 | 5:15.42 | 133595 | 157261
8 | 34:56.62 | 5:26.45 | 157262 | 181756
Характеристики диапазона извлечения и сообщения об ошибках
Выбранный диапазон
Имя файла C:\Documents and Settings\Индра\Мои документы\Моя музыка\Das Ich - Staub.wav
Пиковый уровень 100.0 %
Качество диапазона 99.9 %
CRC копии BDDF1039
Копирование... OK
Ошибок не произошло
Конец отчёта




Das Ich - Das Innere Ich

#777
Жанр: Darkwave
Год выпуска диска: 1996
Производитель диска: Germany
Аудио кодек: FLAC
Тип рипа: image+.cue
Битрейт аудио: lossless
Продолжительность: 39:31
Трэклист:
1. Das Ewige Licht
2. Zweisamkeit
3. Mikrokosmos
4. Das Innere Ich
5. Kokon
6. Das Ewige Licht II
7. Epilog
8. Bin Ich Es Denn (Dem Ich Den Traum)
Soundtrack to the Original Motion Picture "das ewige licht" PM Film
Filmproduction by H.-H. Hassler
All Titles Produced and Recorded 1996 at Danse Macabre Studios by B. Kramm
(C) 1996 Danse Macabre Records. Published 1997 Ausfahrt Musikverlag
Coverdesign by B. Kramm at Danse Macabre Graphics
Exact Audio Copy V0.99 prebeta 4 from 23. January 2008
Отчёт EAC об извлечении, выполненном 6. марта 2009, 10:21
Das Ich / Das Innere Ich
Дисковод: PIONEER DVD-RW DVR-112D Adapter: 0 ID: 1
Режим чтения : Достоверность
Использование точного потока : Да
Отключение кэша аудио : Да
Использование указателей C2 : Нет
Коррекция смещения при чтении : 48
Способность читать области Lead-in и Lead-out : Нет
Заполнение пропущенных сэмплов тишиной : Да
Удаление блоков с тишиной в начале и конце : Нет
При вычислениях CRC использовались нулевые сэмплы : Нет
Интерфейс : Встроенный Win32-интерфейс для Win NT/2000
Выходной формат : Внутренние WAV-операции
Формат сэмплов : 44.100 Гц; 16 бит; стерео
TOC извлечённого CD
Трек | Старт | Длительность | Начальный сектор | Конечный сектор
---------------------------------------------------------------------
1 | 0:00.00 | 5:10.35 | 0 | 23284
2 | 5:10.35 | 4:50.32 | 23285 | 45066
3 | 10:00.67 | 6:03.73 | 45067 | 72364
4 | 16:04.65 | 6:49.67 | 72365 | 103106
5 | 22:54.57 | 4:30.60 | 103107 | 123416
6 | 27:25.42 | 4:21.53 | 123417 | 143044
7 | 31:47.20 | 2:12.52 | 143045 | 152996
8 | 33:59.72 | 5:31.10 | 152997 | 177831
Характеристики диапазона извлечения и сообщения об ошибках
Выбранный диапазон
Имя файла C:\Documents and Settings\Индра\Мои документы\Моя музыка\Das Ich - Das Innere Ich.wav
Пиковый уровень 100.0 %
Качество диапазона 99.9 %
CRC копии 30713C3F
Копирование... OK
Ошибок не произошло
Конец отчёта




Das Ich - Morgue

#777
Жанр: Darkwave
Год выпуска диска: 1998
Производитель диска: Germany
Аудио кодек: FLAC
Тип рипа: image+.cue
Битрейт аудио: lossless
Продолжительность: 39:21
Трэклист:
1. Mann Und Frau Gehn Durch Die Krebsbaracke
2. Kleine Aster
3. Saal Der Kreisenden Frauen
4. Drohung
5. Curettage
6. Schöne Jugend
7. Requiem
8. Negerbraut
9. Mutter
10. Kreislauf
11. Der Arzt I
12. Der Arzt II
13. Der Arzt III
14. Erde Ruft
Exact Audio Copy V0.99 prebeta 4 from 23. January 2008
Отчёт EAC об извлечении, выполненном 6. марта 2009, 10:45
Das Ich / Morgue
Дисковод: PIONEER DVD-RW DVR-112D Adapter: 0 ID: 1
Режим чтения : Достоверность
Использование точного потока : Да
Отключение кэша аудио : Да
Использование указателей C2 : Нет
Коррекция смещения при чтении : 48
Способность читать области Lead-in и Lead-out : Нет
Заполнение пропущенных сэмплов тишиной : Да
Удаление блоков с тишиной в начале и конце : Нет
При вычислениях CRC использовались нулевые сэмплы : Нет
Интерфейс : Встроенный Win32-интерфейс для Win NT/2000
Выходной формат : Внутренние WAV-операции
Формат сэмплов : 44.100 Гц; 16 бит; стерео
TOC извлечённого CD
Трек | Старт | Длительность | Начальный сектор | Конечный сектор
---------------------------------------------------------------------
1 | 0:00.00 | 4:56.10 | 0 | 22209
2 | 4:56.10 | 2:40.38 | 22210 | 34247
3 | 7:36.48 | 3:06.39 | 34248 | 48236
4 | 10:43.12 | 1:10.42 | 48237 | 53528
5 | 11:53.54 | 3:32.20 | 53529 | 69448
6 | 15:25.74 | 3:25.67 | 69449 | 84890
7 | 18:51.66 | 3:02.22 | 84891 | 98562
8 | 21:54.13 | 3:01.40 | 98563 | 112177
9 | 24:55.53 | 2:36.31 | 112178 | 123908
10 | 27:32.09 | 2:24.02 | 123909 | 134710
11 | 29:56.11 | 1:47.01 | 134711 | 142736
12 | 31:43.12 | 1:28.03 | 142737 | 149339
13 | 33:11.15 | 1:29.17 | 149340 | 156031
14 | 34:40.32 | 4:40.06 | 156032 | 177037
Характеристики диапазона извлечения и сообщения об ошибках
Выбранный диапазон
Имя файла C:\Documents and Settings\Индра\Мои документы\Моя музыка\Das Ich - Morgue.wav
Пиковый уровень 99.9 %
Качество диапазона 99.9 %
CRC копии 47D20FF7
Копирование... OK
Ошибок не произошло
Конец отчёта




Das Ich - Re_Laborat

#777
Жанр: Darkwave
Год выпуска диска: 1999
Производитель диска: Germany
Аудио кодек: FLAC
Тип рипа: image+.cue
Битрейт аудио: lossless
Продолжительность: 01:04:56
Трэклист:
1. Der Schrei (Remixed By Chad Blinman Of Laboratory X)
2. Das Ich Im Ich (Remixed By Steve Naghavi Of And One)
3. Unschuld Erde (Remixed By Funker Vogt)
4. Erde Ruft (Remixed By Kramm)
5. He Mensch (Remixed By Ernst Horn Of Deine Lakaien)
6. Dem Ich Den Traum (Remixed By L'Ame Imortelle)
7. Gottes Tod (Rremixed By Falgalas Of Dance Or Die)
8. Aura (Remixed By Wumpscut)
9. Destillat (Remixed By VNV Nation)
10. Der Haß (Remixed By In Strict Confidence)
11. Schwanenschrei (Remixed By Axel K. Of Silke Bischoff)
12. Des Satans Neue Kleider (Remixed By Atrocity)
13. Kain Und Abel (Remixed By Kalte Farben)
Exact Audio Copy V0.99 prebeta 4 from 23. January 2008
Отчёт EAC об извлечении, выполненном 6. марта 2009, 9:25
Das Ich / Re_Laborat
Дисковод: PIONEER DVD-RW DVR-112D Adapter: 0 ID: 1
Режим чтения : Достоверность
Использование точного потока : Да
Отключение кэша аудио : Да
Использование указателей C2 : Нет
Коррекция смещения при чтении : 48
Способность читать области Lead-in и Lead-out : Нет
Заполнение пропущенных сэмплов тишиной : Да
Удаление блоков с тишиной в начале и конце : Нет
При вычислениях CRC использовались нулевые сэмплы : Нет
Интерфейс : Встроенный Win32-интерфейс для Win NT/2000
Выходной формат : Внутренние WAV-операции
Формат сэмплов : 44.100 Гц; 16 бит; стерео
TOC извлечённого CD
Трек | Старт | Длительность | Начальный сектор | Конечный сектор
---------------------------------------------------------------------
1 | 0:00.00 | 5:28.17 | 0 | 24616
2 | 5:28.17 | 4:57.20 | 24617 | 46911
3 | 10:25.37 | 6:26.11 | 46912 | 75872
4 | 16:51.48 | 3:59.65 | 75873 | 93862
5 | 20:51.38 | 5:08.50 | 93863 | 117012
6 | 26:00.13 | 4:40.41 | 117013 | 138053
7 | 30:40.54 | 5:07.20 | 138054 | 161098
8 | 35:47.74 | 4:16.54 | 161099 | 180352
9 | 40:04.53 | 6:06.51 | 180353 | 207853
10 | 46:11.29 | 5:31.47 | 207854 | 232725
11 | 51:43.01 | 4:21.36 | 232726 | 252336
12 | 56:04.37 | 4:32.56 | 252337 | 272792
13 | 60:37.18 | 4:18.22 | 272793 | 292164
Характеристики диапазона извлечения и сообщения об ошибках
Выбранный диапазон
Имя файла C:\Documents and Settings\Индра\Мои документы\Моя музыка\Das Ich - Re_Laborat.wav
Пиковый уровень 100.0 %
Качество диапазона 100.0 %
CRC копии 0ACE5A15
Копирование... OK
Ошибок не произошло
Конец отчёта




Das Ich - Anti'christ

#777
Жанр: Darkwave
Год выпуска диска: 2002
Производитель диска: Germany
Аудио кодек: FLAC
Тип рипа: image+.cue
Битрейт аудио: lossless
Продолжительность: 01:05:17
Трэклист:
1. Engel
2. Keimzeit
3. Grund Der Seele
4. Vater
5. Krieg Im Paradies
6. Tor Zur Hölle
7. Garten Eden
8. Das Dunkle Land
9. Sodom Und Gomorra
10. Der Achte Tag
Exact Audio Copy V0.99 prebeta 4 from 23. January 2008
Отчёт EAC об извлечении, выполненном 6. марта 2009, 8:42
Das Ich / Anti'christ
Дисковод: PIONEER DVD-RW DVR-112D Adapter: 0 ID: 1
Режим чтения : Достоверность
Использование точного потока : Да
Отключение кэша аудио : Да
Использование указателей C2 : Нет
Коррекция смещения при чтении : 48
Способность читать области Lead-in и Lead-out : Нет
Заполнение пропущенных сэмплов тишиной : Да
Удаление блоков с тишиной в начале и конце : Нет
При вычислениях CRC использовались нулевые сэмплы : Нет
Интерфейс : Встроенный Win32-интерфейс для Win NT/2000
Выходной формат : Внутренние WAV-операции
Формат сэмплов : 44.100 Гц; 16 бит; стерео
TOC извлечённого CD
Трек | Старт | Длительность | Начальный сектор | Конечный сектор
---------------------------------------------------------------------
1 | 0:00.00 | 4:14.65 | 0 | 19114
2 | 4:14.65 | 4:57.67 | 19115 | 41456
3 | 9:12.57 | 4:57.03 | 41457 | 63734
4 | 14:09.60 | 6:03.15 | 63735 | 90974
5 | 20:13.00 | 5:34.41 | 90975 | 116065
6 | 25:47.41 | 4:25.45 | 116066 | 135985
7 | 30:13.11 | 6:46.50 | 135986 | 166485
8 | 36:59.61 | 5:47.65 | 166486 | 192575
9 | 42:47.51 | 5:24.61 | 192576 | 216936
10 | 48:12.37 | 17:04.13 | 216937 | 293749
Характеристики диапазона извлечения и сообщения об ошибках
Выбранный диапазон
Имя файла C:\Documents and Settings\Индра\Мои документы\Моя музыка\Das Ich - Anti'christ.wav
Пиковый уровень 100.0 %
Качество диапазона 99.9 %
CRC копии F8F8BB59
Копирование... OK
Ошибок не произошло
Конец отчёта




Правила, инструкции, FAQ!!!
Торрент  Добавлен [26 июн 2020, 21:09] Скачать торрент Магнет ссылка
Скачать торрент
[ Размер 22.32 КБ / Просмотров 13 ]

Статус
Проверен 
 
Размер  1.89 ГБ
Приватный: Нет (DHT включён)
.torrent скачан  1
 


     Отправить личное сообщение
   
Страница 1 из 1
Показать сообщения за:  Поле сортировки  
Начать новую тему Ответить на тему


Сейчас этот форум просматривают: нет зарегистрированных пользователей и гости: 0


Вы не можете начинать темы
Вы не можете отвечать на сообщения
Вы не можете редактировать свои сообщения
Вы не можете удалять свои сообщения
Вы не можете добавлять вложения

Перейти:  
cron