Начать новую тему Ответить на тему
Статистика раздачи
Размер: 358.35 МБ | Добавлен: 26 июн 2020, 20:07 | Скачали: 0
Сидеров: 0  [0 байт/сек]    Личеров: 0  [0 байт/сек]
Пред. тема | След. тема 

Автор
Сообщение

СообщениеДобавлено: 26 июн 2020, 20:07 

Ответить с цитатой 

Das Ich - Egodram
Жанр: Darkwave
Год выпуска диска: 1998
Производитель диска: Germany
Аудио кодек: FLAC
Тип рипа: image+.cue
Битрейт аудио: lossless
Продолжительность: 58:17
Трэклист:
01 Egodram
02 Kindgott
03 Firmament
04 Destillat
05 He Mensch
06 Schwanenschrei
07 Krieger
08 Dorn
09 Chroma
10 Reflex
11 Blutquell
12 Untitled
Доп. информация:
Label: Facedown
Catalog#: 0084552FAC
Format: CD, Album, Limited Edition, Digipak
Источник: свой оригинал
Код:
Exact Audio Copy V0.99 prebeta 4 from 23. January 2008
EAC extraction logfile from 1. April 2009, 14:31
Das Ich / Egodram
Used drive  : PLEXTOR DVD-ROM PX-116A2   Adapter: 0  ID: 1
Read mode               : Secure
Utilize accurate stream : Yes
Defeat audio cache      : Yes
Make use of C2 pointers : No
Read offset correction                      : 102
Overread into Lead-In and Lead-Out          : No
Fill up missing offset samples with silence : Yes
Delete leading and trailing silent blocks   : No
Null samples used in CRC calculations       : Yes
Used interface                              : Installed external ASPI interface
Used output format              : User Defined Encoder
Selected bitrate                : 1024 kBit/s
Quality                         : High
Add ID3 tag                     : No
Command line compressor         : C:\Program Files\FLAC\flac.exe
Additional command line options : -8 -V -T "ARTIST=%a" -T "TITLE=%t" -T "ALBUM=%g" -T "DATE=%y" -T "TRACKNUMBER=%n" -T "GENRE=%m" -T "COMMENT=EAC FLAC -8" %s
TOC of the extracted CD
     Track |   Start  |  Length  | Start sector | End sector
    ---------------------------------------------------------
        1  |  0:00.00 |  2:47.22 |         0    |    12546
        2  |  2:47.22 |  4:20.30 |     12547    |    32076
        3  |  7:07.52 |  5:18.00 |     32077    |    55926
        4  | 12:25.52 |  4:19.18 |     55927    |    75369
        5  | 16:44.70 |  5:07.42 |     75370    |    98436
        6  | 21:52.37 |  6:00.48 |     98437    |   125484
        7  | 27:53.10 |  3:16.67 |    125485    |   140251
        8  | 31:10.02 |  3:04.00 |    140252    |   154051
        9  | 34:14.02 |  4:40.35 |    154052    |   175086
       10  | 38:54.37 |  3:29.40 |    175087    |   190801
       11  | 42:24.02 | 15:48.35 |    190802    |   261936
       12  | 58:12.37 |  0:04.43 |    261937    |   262279
Range status and errors
Selected range
     Filename D:\torrent1\Das Ich - Egodram\Das Ich - Egodram.wav
     Peak level 100.0 %
     Range quality 100.0 %
     Test CRC 1EFA1F0E
     Copy CRC 1EFA1F0E
     Copy OK
No errors occurred
AccurateRip summary
Track  1  accurately ripped (confidence 16)  [BBECFD9E]
Track  2  accurately ripped (confidence 16)  [43147091]
Track  3  accurately ripped (confidence 16)  [ABC920F3]
Track  4  accurately ripped (confidence 15)  [561F7838]
Track  5  accurately ripped (confidence 16)  [D1E7A702]
Track  6  accurately ripped (confidence 16)  [0C45E6D1]
Track  7  accurately ripped (confidence 15)  [54C3F237]
Track  8  accurately ripped (confidence 16)  [86C8A90A]
Track  9  accurately ripped (confidence 16)  [CB7A8B6F]
Track 10  accurately ripped (confidence 16)  [7864541B]
Track 11  accurately ripped (confidence 16)  [0EAA06B0]
Track 12  not present in database
11 track(s) accurately ripped
 1 track(s) not present in the AccurateRip database
Some tracks could not be verified as accurate
End of status report
Правила, инструкции, FAQ!!!
Торрент  Добавлен [26 июн 2020, 20:07] Скачать торрент Магнет ссылка
Скачать торрент
[ Размер 14.7 КБ / Просмотров 5 ]

Статус
Проверен 
 
Размер  358.35 МБ
Приватный: Нет (DHT включён)
.torrent скачан  0
 


     Отправить личное сообщение
   
Страница 1 из 1
Показать сообщения за:  Поле сортировки  
Начать новую тему Ответить на тему


Сейчас этот форум просматривают: нет зарегистрированных пользователей и гости: 0


Вы не можете начинать темы
Вы не можете отвечать на сообщения
Вы не можете редактировать свои сообщения
Вы не можете удалять свои сообщения
Вы не можете добавлять вложения

Перейти:  
cron