Начать новую тему Ответить на тему
Статистика раздачи
Размер: 409.68 МБ | Добавлен: 26 июн 2020, 20:19 | Скачали: 0
Сидеров: 2  [0 байт/сек]    Личеров: 0  [0 байт/сек]
Пред. тема | След. тема 

Автор
Сообщение

СообщениеДобавлено: 26 июн 2020, 20:19 

Ответить с цитатой 

.Com/Kill (Diary of Dreams) — 2013-.Com/Kill
Жанр: Darkwave, dark electro, industrial, ebm
Носитель: CD
Страна-производитель диска: Germany
Год издания: 2013
Издатель (лейбл): Accession Records
Номер по каталогу: A135
Страна: Germany
Аудиокодек: FLAC (*.flac)
Тип рипа: image+.cue
Битрейт аудио: lossless
Продолжительность: 00:40:11
Источник (релизер): Благородно пожертвован kergarn
Наличие сканов в содержимом раздачи: да
Треклист:
01. Freaks Like Us
02. Com/Kill One
03. Das Blendwerk
04. Monster Divine
05. Who:Ah!
06. Machines
07. Still Die Gier
08. Out Of Control
09. Knecht Der Lüge
Официальный сайт .Com/Kill
Состав
Adrian Hates
Gaun:A
Exact Audio Copy V1.0 beta 3 from 29. August 2011
Отчёт EAC об извлечении, выполненном 16. августа 2013, 12:39
.Com/Kill / .Com/Kill
Дисковод: _NEC DVD_RW ND-3520A Adapter: 0 ID: 1
Режим чтения : Достоверность
Использование точного потока : Да
Отключение кэша аудио : Да
Использование указателей C2 : Нет
Коррекция смещения при чтении : 48
Способность читать области Lead-in и Lead-out : Нет
Заполнение пропущенных сэмплов тишиной : Да
Удаление блоков с тишиной в начале и конце : Нет
При вычислениях CRC использовались нулевые сэмплы : Да
Интерфейс : Установленный внешний ASPI-интерфейс
Выходной формат : Пользовательский кодировщик
Выбранный битрейт : 1024 kBit/s
Качество : Высокий
Добавление ID3-тега : Нет
Утилита сжатия : C:\Program Files\Exact Audio Copy\Flac\flac.exe
Дополнительные параметры : -6 -V -T "Date=%year%" -T "Genre=%genre%" %source%
TOC извлечённого CD
Трек | Старт | Длительность | Начальный сектор | Конечный сектор
---------------------------------------------------------------------
1 | 0:00.00 | 5:19.24 | 0 | 23948
2 | 5:19.24 | 4:29.39 | 23949 | 44162
3 | 9:48.63 | 3:57.71 | 44163 | 62008
4 | 13:46.59 | 4:40.28 | 62009 | 83036
5 | 18:27.12 | 3:45.29 | 83037 | 99940
6 | 22:12.41 | 5:32.69 | 99941 | 124909
7 | 27:45.35 | 3:47.59 | 124910 | 141993
8 | 31:33.19 | 4:16.27 | 141994 | 161220
9 | 35:49.46 | 4:21.62 | 161221 | 180857
10 | 42:43.33 | 4:43.16 | 192258 | 213498
Характеристики диапазона извлечения и сообщения об ошибках
Выбранный диапазон
Имя файла C:\.Com-Kill - .Com-Kill.wav
Пиковый уровень 100.0 %
Скорость извлечения 5.5 X
Качество диапазона 99.9 %
CRC теста 06EB29E7
CRC копии 06EB29E7
Копирование... OK
Ошибок не произошло
AccurateRip: сводка
Трек 1 : извлечено точно (доверие 2) [8275AF95] (AR v2)
Трек 2 : извлечено точно (доверие 2) [CFCDE353] (AR v2)
Трек 3 : извлечено точно (доверие 2) [D5DE21B2] (AR v2)
Трек 4 : извлечено точно (доверие 2) [48D41A6B] (AR v2)
Трек 5 : извлечено точно (доверие 2) [B97A674F] (AR v2)
Трек 6 : извлечено точно (доверие 2) [E865684E] (AR v2)
Трек 7 : извлечено точно (доверие 2) [99ABEA05] (AR v2)
Трек 8 : извлечено точно (доверие 2) [3903917C] (AR v2)
Трек 9 : извлечено точно (доверие 2) [240C0C1B] (AR v2)
Все треки извлечены точно
Конец отчёта
==== Контрольная сумма отчёта EB6D46DE8B6F8398A7B89581C80A2613819FE8C3E88E9CB815007456A31D992A ====
#777
Правила, инструкции, FAQ!!!
Торрент  Добавлен [26 июн 2020, 20:19] Скачать торрент Магнет ссылка
Скачать торрент
[ Размер 17.63 КБ / Просмотров 10 ]

Статус
Проверен 
 
Размер  409.68 МБ
Приватный: Нет (DHT включён)
.torrent скачан  0
 


     Отправить личное сообщение
   
Страница 1 из 1
Показать сообщения за:  Поле сортировки  
Начать новую тему Ответить на тему


Сейчас этот форум просматривают: нет зарегистрированных пользователей и гости: 0


Вы не можете начинать темы
Вы не можете отвечать на сообщения
Вы не можете редактировать свои сообщения
Вы не можете удалять свои сообщения
Вы не можете добавлять вложения

Перейти:  
cron