Начать новую тему Ответить на тему
Статистика раздачи
Размер: 423.71 МБ | Добавлен: 26 июн 2020, 17:30 | Скачали: 0
Сидеров: 0  [0 байт/сек]    Личеров: 2  [0 байт/сек]
Пред. тема | След. тема 

Автор
Сообщение

СообщениеДобавлено: 26 июн 2020, 17:30 

Ответить с цитатой 

Dracul - Like an Animal
Жанр: Darkwave, Dark-Electro Gothic, Gothic Rock, Gothic Novel Rock, Industrial, Electronics
Год выпуска диска: 2006
Производитель диска: Германия
Аудио кодек: FLAC
Тип рипа: image+.cue
Битрейт аудио: lossless
Продолжительность: 49:52.56
Трэклист:
01. Like an Animal
02. Waehle die Freiheit
03. Emotion
04. Blood and Pain
05. Vampirias Dream
06. Violence
07. Deathwish
08. So lange her
09. Soulhunter
10. Moerder
11. Follow Me (Painbastard Rmx)
Exact Audio Copy V0.99 prebeta 4 from 23. January 2008
Отчёт EAC об извлечении, выполненном 31. августа 2008, 15:06
Dracul / Like an Animal
Дисковод: PIONEER DVD-RW DVR-111D Adapter: 0 ID: 0
Режим чтения : Достоверность
Использование точного потока : Да
Отключение кэша аудио : Да
Использование указателей C2 : Нет
Коррекция смещения при чтении : 48
Способность читать области Lead-in и Lead-out : Нет
Заполнение пропущенных сэмплов тишиной : Да
Удаление блоков с тишиной в начале и конце : Нет
При вычислениях CRC использовались нулевые сэмплы : Да
Интерфейс : Встроенный Win32-интерфейс для Win NT/2000
Выходной формат : Пользовательский кодировщик
Выбранный битрейт : 1024 kBit/s
Качество : Высокий
Добавление ID3-тэга : Нет
Утилита сжатия : C:\Program Files\Exact Audio Copy\FLAC\FLAC.EXE
Дополнительные параметры : -8 -V -T "ARTIST=%a" -T "TITLE=%t" -T "ALBUM=%g" -T "DATE=%y" -T "TRACKNUMBER=%n" -T "GENRE=%m" -T "COMMENT=%e" %s -o %d
TOC извлечённого CD
Трек | Старт | Длительность | Начальный сектор | Конечный сектор
---------------------------------------------------------------------
1 | 0:00.00 | 5:53.30 | 0 | 26504
2 | 5:53.30 | 4:25.61 | 26505 | 46440
3 | 10:19.16 | 4:25.71 | 46441 | 66386
4 | 14:45.12 | 5:17.17 | 66387 | 90178
5 | 20:02.29 | 5:46.58 | 90179 | 116186
6 | 25:49.12 | 5:17.08 | 116187 | 139969
7 | 31:06.20 | 4:30.57 | 139970 | 160276
8 | 35:37.02 | 5:06.47 | 160277 | 183273
9 | 40:43.49 | 5:16.48 | 183274 | 207021
10 | 46:00.22 | 3:52.34 | 207022 | 224455
11 | 49:52.56 | 6:00.64 | 224456 | 251519
Характеристики диапазона извлечения и сообщения об ошибках
Выбранный диапазон
Имя файла D:\123\t\Dracul - Like an Animal [2006]\Dracul - Like an Animal.wav
Пиковый уровень 98.8 %
Качество диапазона 100.0 %
CRC теста 8BD12DD0
CRC копии 8BD12DD0
Копирование... OK
Ошибок не произошло
AccurateRip: сводка
Трек 1 точность не определена (достоверность 2) [D901066D], AccurateRip вернул [573FBBC5]
Трек 2 точность не определена (достоверность 2) [25948C58], AccurateRip вернул [3FDF87B0]
Трек 3 точность не определена (достоверность 2) [0447CE7B], AccurateRip вернул [C8EF9D91]
Трек 4 точность не определена (достоверность 2) [23D7A6F8], AccurateRip вернул [FE809322]
Трек 5 точность не определена (достоверность 2) [7A99F248], AccurateRip вернул [0A5CD770]
Трек 6 точность не определена (достоверность 2) [80D330C0], AccurateRip вернул [12877BF8]
Трек 7 точность не определена (достоверность 2) [56172A70], AccurateRip вернул [9FF51BF0]
Трек 8 точность не определена (достоверность 2) [68A4DDBF], AccurateRip вернул [DB06643B]
Трек 9 точность не определена (достоверность 2) [1BEB7924], AccurateRip вернул [A065142C]
Трек 10 точность не определена (достоверность 2) [03E4E31A], AccurateRip вернул [DBD202E2]
Трек 11 точность не определена (достоверность 2) [9EC27F68], AccurateRip вернул [7C84E668]
Ни один трек не прошёл проверки на точность
В вашей базе может быть иной вариант штамповки диска
Конец отчёта
AUDIOCHECKER v2.0 beta (build 457) - by Dester - opdester@freemail.hu
~~~~~~~~~~~~~~~~~~~~~~~~~~~~~~~~~~
-=== DO NOT EDIT THIS FILE! ===-
Path: ...\Dracul - Like an Animal [2006]
1 -=- Dracul - Like an Animal.flac -=- CDDA (100%)
231911796
Доп. информация: Старт сайд-проекту Dracul был дан летом 1994, во время непродолжительных каникул основного коллектива Моцарта, и вот спустя 10 лет свет увидел новый, уже четвертый по счету, полноформатный студийный альбом – "Like an animal". В своих сольных работах маэстро творит музыку в менее агрессивном и, соответственно, в более легком, танцевальном стиле, но зато лирика песен остается неизменной, что в Dracul, что в Umbra et Imago: мистика, кровь и секс.
Информация взята с http://www.metallibrary.ru/articles/reviews/albums/l/dracul.05_like_an_animal.html
Правила, инструкции, FAQ!!!
Торрент  Добавлен [26 июн 2020, 17:30] Скачать торрент Магнет ссылка
Скачать торрент
[ Размер 17.23 КБ / Просмотров 16 ]

Статус
Проверен 
 
Размер  423.71 МБ
Приватный: Нет (DHT включён)
.torrent скачан  0
 


     Отправить личное сообщение
   
Страница 1 из 1
Показать сообщения за:  Поле сортировки  
Начать новую тему Ответить на тему


Сейчас этот форум просматривают: нет зарегистрированных пользователей и гости: 0


Вы не можете начинать темы
Вы не можете отвечать на сообщения
Вы не можете редактировать свои сообщения
Вы не можете удалять свои сообщения
Вы не можете добавлять вложения

Перейти:  
cron