Начать новую тему Ответить на тему
Статистика раздачи
Размер: 468.03 МБ | Добавлен: 26 июн 2020, 19:43 | Скачали: 1
Сидеров: 1  [0 байт/сек]    Личеров: 0  [0 байт/сек]
Пред. тема | След. тема 

Автор
Сообщение

СообщениеДобавлено: 26 июн 2020, 19:43 

Ответить с цитатой 

Dawn of Ashes / The Crypt Injection
Жанр: Dark Elektro
Страна-производитель диска: Germany
Год издания: 2007
Издатель (лейбл): NoiTekk
Номер по каталогу: NTK 029
Страна: USA
Аудиокодек: FLAC (*.flac)
Тип рипа: image+.cue
Битрейт аудио: lossless
Источник (релизер): собственный рип с фирменного CD
Наличие сканов в содержимом раздачи: нет
Треклист:
01. A Blade In The Dark
02. Torture Device
03. Portrait Of Homicide
04. Inhuman Salvation
05. Psycho Therapy
06. Still Born Defect
07. The Crypt Injection
08. Slasher
09. Where Angels Die
10. Blood Shattered Cross
11. Vengeance (When There Is Nobody To Trust)
12. Portrait Of Homicide (Grendel Mix)
13. Portrait Of Homicide (Aesthetic Perfection Mix)
14. Portrait Of Homicide (Nurzery Rhymes Mix)
Код:
Exact Audio Copy V1.0 beta 3 from 29. August 2011
EAC extraction logfile from 2. March 2013, 18:30
Dawn Of Ashes / The Crypt Injection
Used drive  : Optiarc DVD RW AD-5200S   Adapter: 1  ID: 0
Read mode               : Secure
Utilize accurate stream : Yes
Defeat audio cache      : Yes
Make use of C2 pointers : No
Read offset correction                      : 48
Overread into Lead-In and Lead-Out          : No
Fill up missing offset samples with silence : Yes
Delete leading and trailing silent blocks   : No
Null samples used in CRC calculations       : Yes
Used interface                              : Native Win32 interface for Win NT & 2000
Used output format              : User Defined Encoder
Selected bitrate                : 128 kBit/s
Quality                         : High
Add ID3 tag                     : No
Command line compressor         : C:\Program Files\FLAC\flac.exe
Additional command line options : -V -8 -T "Date=%year%" -T "Genre=%genre%" %source%
TOC of the extracted CD
     Track |   Start  |  Length  | Start sector | End sector
    ---------------------------------------------------------
        1  |  0:00.00 |  4:50.00 |         0    |    21749
        2  |  4:50.00 |  4:02.02 |     21750    |    39901
        3  |  8:52.02 |  4:42.66 |     39902    |    61117
        4  | 13:34.68 |  4:41.74 |     61118    |    82266
        5  | 18:16.67 |  2:08.16 |     82267    |    91882
        6  | 20:25.08 |  5:43.70 |     91883    |   117677
        7  | 26:09.03 |  4:18.00 |    117678    |   137027
        8  | 30:27.03 |  5:11.34 |    137028    |   160386
        9  | 35:38.37 |  4:55.10 |    160387    |   182521
       10  | 40:33.47 |  4:21.51 |    182522    |   202147
       11  | 44:55.23 |  2:58.00 |    202148    |   215497
       12  | 47:53.23 |  4:43.23 |    215498    |   236745
       13  | 52:36.46 |  4:50.00 |    236746    |   258495
       14  | 57:26.46 |  3:37.54 |    258496    |   274824
       15  | 63:36.25 |  5:31.62 |    286225    |   311111
Range status and errors
Selected range
     Filename G:\Rips\Dawn Of Ashes - The Crypt Injection.wav
     Peak level 98.9 %
     Extraction speed 4.0 X
     Range quality 100.0 %
     Test CRC 87F85161
     Copy CRC 87F85161
     Copy OK
No errors occurred
AccurateRip summary
Track  1  accurately ripped (confidence 2)  [206862D1]  (AR v1)
Track  2  accurately ripped (confidence 2)  [96BC14CA]  (AR v1)
Track  3  accurately ripped (confidence 2)  [6B263621]  (AR v1)
Track  4  accurately ripped (confidence 2)  [9DAA3A23]  (AR v1)
Track  5  accurately ripped (confidence 2)  [D746CB5C]  (AR v1)
Track  6  accurately ripped (confidence 2)  [3B9FF9CF]  (AR v1)
Track  7  accurately ripped (confidence 2)  [5381EC63]  (AR v1)
Track  8  accurately ripped (confidence 2)  [B2F80975]  (AR v1)
Track  9  accurately ripped (confidence 2)  [64F95613]  (AR v1)
Track 10  accurately ripped (confidence 2)  [DEF3E7C3]  (AR v1)
Track 11  accurately ripped (confidence 2)  [3D0146F9]  (AR v1)
Track 12  accurately ripped (confidence 2)  [10D40EDD]  (AR v1)
Track 13  accurately ripped (confidence 2)  [9BA21D7A]  (AR v1)
Track 14  accurately ripped (confidence 2)  [5DF3AD2E]  (AR v1)
All tracks accurately ripped
End of status report
==== Log checksum 66F834B7A41FFD937AB47C71A09FB3A5F8B09CBDFCB95432A5DA54124BD4B207 ====
Код:
REM GENRE DarkElektro
REM DATE 2007
REM DISCID E510340F
REM COMMENT "ExactAudioCopy v1.0b3"
PERFORMER "Dawn Of Ashes"
TITLE "The Crypt Injection"
FILE "Dawn Of Ashes - The Crypt Injection.flac" WAVE
  TRACK 01 AUDIO
    TITLE "A blade in the dark"
    PERFORMER "1"
    FLAGS DCP
    INDEX 01 00:00:00
    INDEX 02 04:47:04
  TRACK 02 AUDIO
    TITLE "Torture device"
    PERFORMER "2"
    FLAGS DCP
    INDEX 00 04:48:00
    INDEX 01 04:50:00
  TRACK 03 AUDIO
    TITLE "Portrait of homicide"
    PERFORMER "3"
    FLAGS DCP
    INDEX 00 08:50:02
    INDEX 01 08:52:02
  TRACK 04 AUDIO
    TITLE "Inhuman salvation"
    PERFORMER "4"
    FLAGS DCP
    INDEX 00 13:32:68
    INDEX 01 13:34:68
  TRACK 05 AUDIO
    TITLE "Psycho Therapy"
    PERFORMER "5"
    FLAGS DCP
    INDEX 00 18:14:67
    INDEX 01 18:16:67
  TRACK 06 AUDIO
    TITLE "Still born defect"
    PERFORMER "6"
    FLAGS DCP
    INDEX 00 20:23:08
    INDEX 01 20:25:08
    INDEX 02 26:06:03
  TRACK 07 AUDIO
    TITLE "The crypt injection"
    PERFORMER "7"
    FLAGS DCP
    INDEX 00 26:07:03
    INDEX 01 26:09:03
    INDEX 02 30:24:03
  TRACK 08 AUDIO
    TITLE "Slasher"
    PERFORMER "8"
    FLAGS DCP
    INDEX 00 30:25:03
    INDEX 01 30:27:03
    INDEX 02 35:35:37
  TRACK 09 AUDIO
    TITLE "Where angels die"
    PERFORMER "9"
    FLAGS DCP
    INDEX 00 35:36:37
    INDEX 01 35:38:37
    INDEX 02 40:30:47
  TRACK 10 AUDIO
    TITLE "Blood shattered cross"
    PERFORMER "10"
    FLAGS DCP
    INDEX 00 40:31:47
    INDEX 01 40:33:47
    INDEX 02 40:34:33
    INDEX 03 44:52:23
  TRACK 11 AUDIO
    TITLE "Vengeance (When there is nobody to trust)"
    PERFORMER "11"
    FLAGS DCP
    INDEX 00 44:53:23
    INDEX 01 44:55:23
    INDEX 02 47:50:23
  TRACK 12 AUDIO
    TITLE "Still born defect (Aslan Faction mix)"
    PERFORMER "12"
    FLAGS DCP
    INDEX 00 47:51:23
    INDEX 01 47:53:23
  TRACK 13 AUDIO
    TITLE "Portrait of homicide (XP8 mix)"
    PERFORMER "13"
    FLAGS DCP
    INDEX 00 52:34:46
    INDEX 01 52:36:46
    INDEX 02 52:37:45
    INDEX 03 57:23:58
  TRACK 14 AUDIO
    TITLE "Portrait of homicide (Dioxyde mix)"
    PERFORMER "14"
    FLAGS DCP
    INDEX 00 57:24:46
    INDEX 01 57:26:46

Правила, инструкции, FAQ!!!
Торрент  Добавлен [26 июн 2020, 19:43] Скачать торрент Магнет ссылка
Скачать торрент
[ Размер 19.03 КБ / Просмотров 19 ]

Статус
Проверен 
 
Размер  468.03 МБ
Приватный: Нет (DHT включён)
.torrent скачан  1
 


     Отправить личное сообщение
   
Страница 1 из 1
Показать сообщения за:  Поле сортировки  
Начать новую тему Ответить на тему


Сейчас этот форум просматривают: нет зарегистрированных пользователей и гости: 0


Вы не можете начинать темы
Вы не можете отвечать на сообщения
Вы не можете редактировать свои сообщения
Вы не можете удалять свои сообщения
Вы не можете добавлять вложения

Перейти:  
cron