Начать новую тему Ответить на тему
Статистика раздачи
Размер: 478.76 МБ | Добавлен: 26 июн 2020, 20:09 | Скачали: 0
Сидеров: 1  [0 байт/сек]    Личеров: 0  [0 байт/сек]
Пред. тема | След. тема 

Автор
Сообщение

СообщениеДобавлено: 26 июн 2020, 20:09 

Ответить с цитатой 

Dawn of Ashes / In The Act Of Violence [NTK 022]
Жанр: DarkElektro
Страна-производитель диска: Germany
Год издания: 2006
Издатель (лейбл): NoiTekk
Номер по каталогу: NTK022
Страна: USA
Аудиокодек: FLAC (*.flac)
Тип рипа: image+.cue
Битрейт аудио: lossless
Источник (релизер): Собственный рип с фирменного CD
Наличие сканов в содержимом раздачи: нет
Треклист:
01. Abyss
02. In The Act Of Violence
03. Flatline
04. Diagnosis
05. Nightmare
06. Dark Reality
07. Killer Instinct
08. Nail Driven
09. Disgraceful Treason
10. Maximum Damnation
11. Abyss (FGFC820-Remix)
Код:
Exact Audio Copy V1.0 beta 3 from 29. August 2011
EAC extraction logfile from 2. March 2013, 17:52
Dawn of Ashes / In The Acts Of Violence
Used drive  : Optiarc DVD RW AD-5200S   Adapter: 1  ID: 0
Read mode               : Secure
Utilize accurate stream : Yes
Defeat audio cache      : Yes
Make use of C2 pointers : No
Read offset correction                      : 48
Overread into Lead-In and Lead-Out          : No
Fill up missing offset samples with silence : Yes
Delete leading and trailing silent blocks   : No
Null samples used in CRC calculations       : Yes
Used interface                              : Native Win32 interface for Win NT & 2000
Used output format              : User Defined Encoder
Selected bitrate                : 128 kBit/s
Quality                         : High
Add ID3 tag                     : No
Command line compressor         : C:\Program Files\FLAC\flac.exe
Additional command line options : -V -8 -T "Date=%year%" -T "Genre=%genre%" %source%
TOC of the extracted CD
     Track |   Start  |  Length  | Start sector | End sector
    ---------------------------------------------------------
        1  |  0:00.00 |  5:23.38 |         0    |    24262
        2  |  5:23.38 |  4:11.00 |     24263    |    43087
        3  |  9:34.38 |  5:33.11 |     43088    |    68073
        4  | 15:07.49 |  4:34.26 |     68074    |    88649
        5  | 19:42.00 |  5:54.08 |     88650    |   115207
        6  | 25:36.08 |  6:41.04 |    115208    |   145286
        7  | 32:17.12 |  6:52.08 |    145287    |   176194
        8  | 39:09.20 |  4:53.01 |    176195    |   198170
        9  | 44:02.21 |  6:02.32 |    198171    |   225352
       10  | 50:04.53 |  5:30.16 |    225353    |   250118
       11  | 55:34.69 |  5:44.07 |    250119    |   275925
Range status and errors
Selected range
     Filename G:\Rips\Dawn of Ashes - In The Acts Of Violence.wav
     Peak level 98.9 %
     Extraction speed 4.1 X
     Range quality 100.0 %
     Test CRC 58B0CA61
     Copy CRC 58B0CA61
     Copy OK
No errors occurred
AccurateRip summary
Track  1  accurately ripped (confidence 3)  [B7026364]  (AR v1)
Track  2  accurately ripped (confidence 3)  [1FAF084F]  (AR v1)
Track  3  accurately ripped (confidence 3)  [D4E04E3E]  (AR v1)
Track  4  accurately ripped (confidence 3)  [363AEB76]  (AR v1)
Track  5  accurately ripped (confidence 3)  [AD695BD6]  (AR v1)
Track  6  accurately ripped (confidence 3)  [C40CBE93]  (AR v1)
Track  7  accurately ripped (confidence 3)  [804C409B]  (AR v1)
Track  8  accurately ripped (confidence 3)  [E7C449E6]  (AR v1)
Track  9  accurately ripped (confidence 3)  [45C0525A]  (AR v1)
Track 10  accurately ripped (confidence 3)  [D6CEE2D4]  (AR v1)
Track 11  accurately ripped (confidence 3)  [569DA892]  (AR v1)
All tracks accurately ripped
End of status report
==== Log checksum BD72D46263FD13AD1DAE0796C498D278943DA8A703A9208462FFAE3148EBEBA2 ====
Код:
REM GENRE DarkElektro
REM DATE 2006
REM DISCID 980E5F0B
REM COMMENT "ExactAudioCopy v1.0b3"
PERFORMER "Dawn of Ashes"
TITLE "In The Acts Of Violence"
FILE "Dawn of Ashes - In The Acts Of Violence.flac" WAVE
  TRACK 01 AUDIO
    TITLE "Abyss "
    PERFORMER "Dawn of Ashes"
    INDEX 01 00:00:00
  TRACK 02 AUDIO
    TITLE "In The Acts Of Violence "
    PERFORMER "Dawn of Ashes"
    INDEX 00 05:21:38
    INDEX 01 05:23:38
  TRACK 03 AUDIO
    TITLE "Flatline "
    PERFORMER "Dawn of Ashes"
    INDEX 00 09:32:38
    INDEX 01 09:34:38
  TRACK 04 AUDIO
    TITLE "Diagnosis "
    PERFORMER "Dawn of Ashes"
    INDEX 00 15:05:49
    INDEX 01 15:07:49
  TRACK 05 AUDIO
    TITLE "Nightmare "
    PERFORMER "Dawn of Ashes"
    INDEX 00 19:40:00
    INDEX 01 19:42:00
  TRACK 06 AUDIO
    TITLE "Dark Reality "
    PERFORMER "Dawn of Ashes"
    INDEX 00 25:34:08
    INDEX 01 25:36:08
  TRACK 07 AUDIO
    TITLE "Killer Instinct"
    PERFORMER "Dawn of Ashes"
    INDEX 00 32:15:12
    INDEX 01 32:17:12
  TRACK 08 AUDIO
    TITLE "Nail Driven "
    PERFORMER "Dawn of Ashes"
    INDEX 00 39:07:20
    INDEX 01 39:09:20
  TRACK 09 AUDIO
    TITLE "Disgraceful Treason "
    PERFORMER "Dawn of Ashes"
    INDEX 00 44:00:21
    INDEX 01 44:02:21
  TRACK 10 AUDIO
    TITLE "Maximum Damnation "
    PERFORMER "Dawn of Ashes"
    INDEX 00 50:02:53
    INDEX 01 50:04:53
  TRACK 11 AUDIO
    TITLE "Abyss (Fgfc820-Remix)"
    PERFORMER "Fgfc820"
    INDEX 00 55:32:69
    INDEX 01 55:34:69

Правила, инструкции, FAQ!!!
Торрент  Добавлен [26 июн 2020, 20:09] Скачать торрент Магнет ссылка
Скачать торрент
[ Размер 19.45 КБ / Просмотров 10 ]

Статус
Проверен 
 
Размер  478.76 МБ
Приватный: Нет (DHT включён)
.torrent скачан  0
 


     Отправить личное сообщение
   
Страница 1 из 1
Показать сообщения за:  Поле сортировки  
Начать новую тему Ответить на тему


Сейчас этот форум просматривают: нет зарегистрированных пользователей и гости: 0


Вы не можете начинать темы
Вы не можете отвечать на сообщения
Вы не можете редактировать свои сообщения
Вы не можете удалять свои сообщения
Вы не можете добавлять вложения

Перейти:  
cron