Начать новую тему Ответить на тему
Статистика раздачи
Размер: 493.71 МБ | Добавлен: 26 июн 2020, 20:16 | Скачали: 0
Сидеров: 1  [0 байт/сек]    Личеров: 0  [0 байт/сек]
Пред. тема | След. тема 

Автор
Сообщение

СообщениеДобавлено: 26 июн 2020, 20:16 

Ответить с цитатой 

Xiescive / Nexus
Жанр: dark electro
Страна-производитель диска: USA
Год издания: 2011
Издатель (лейбл): Nilaihah Records
Номер по каталогу: NR052
Аудиокодек: FLAC (*.flac)
Тип рипа: image+.cue
Битрейт аудио: lossless
Продолжительность: 1:05:34.04
Источник (релизер): Физический носитель
Наличие сканов в содержимом раздачи: да
Треклист:
01. Time To Die [4:28]
02. Subversion [3:49]
03. Waking Vision [3:41]
04. Just A Dream [4:57]
05. Sex, Drugs & Electro [4:28]
06. Bloodwork [5:19]
07. Fallen Empire [4:38]
08. Nympholepsy [4:38]
09. The Crucible Effect [4:04]
10. Liars Plea [4:04]
11. Time To Die (Nitronoise rmx) [4:21]
12. Subversion (The Luna Sequence rmx) [5:05]
13. Time To Die (Cutoff:Sky rmx) [6:19]
14. The Crucible Effect (Dryft rmx) [5:44]
Код:
Exact Audio Copy V0.99 prebeta 5 from 4. May 2009
Отчёт EAC об извлечении, выполненном 4. марта 2012, 17:09
Xiescive / Nexus
Дисковод: _NEC    DVD_RW ND-3520A   Adapter: 0  ID: 1
Режим чтения                 : Достоверность
Использование точного потока : Да
Отключение кэша аудио        : Да
Использование указателей C2  : Нет
Коррекция смещения при чтении                     : 48
Способность читать области Lead-in и Lead-out     : Нет
Заполнение пропущенных сэмплов тишиной            : Да
Удаление блоков с тишиной в начале и конце        : Нет
При вычислениях CRC использовались нулевые сэмплы : Да
Интерфейс                                         : Установленный внешний ASPI-интерфейс
Выходной формат          : Пользовательский кодировщик
Выбранный битрейт        : 1024 kBit/s
Качество                 : Высокий
Добавление ID3-тэга      : Нет
Утилита сжатия           : C:\Program Files\Exact Audio Copy\flac.exe
Дополнительные параметры : -6 -V -T "ARTIST=%a" -T "TITLE=%t" -T "ALBUM=%g" -T "DATE=%y" -T "TRACKNUMBER=%n" -T "GENRE=%m" -T "COMMENT=%e" %s -o %d
TOC извлечённого CD
     Трек |   Старт  | Длительность | Начальный сектор | Конечный сектор
    ---------------------------------------------------------------------
       1  |  0:00.00 |    4:28.01   |           0      |      20100
       2  |  4:28.01 |    3:48.53   |       20101      |      37253
       3  |  8:16.54 |    3:40.62   |       37254      |      53815
       4  | 11:57.41 |    4:57.23   |       53816      |      76113
       5  | 16:54.64 |    4:27.39   |       76114      |      96177
       6  | 21:22.28 |    5:18.67   |       96178      |     120094
       7  | 26:41.20 |    4:37.46   |      120095      |     140915
       8  | 31:18.66 |    4:37.46   |      140916      |     161736
       9  | 35:56.37 |    4:03.52   |      161737      |     180013
      10  | 40:00.14 |    4:03.52   |      180014      |     198290
      11  | 44:03.66 |    4:21.10   |      198291      |     217875
      12  | 48:25.01 |    5:05.30   |      217876      |     240780
      13  | 53:30.31 |    6:19.27   |      240781      |     269232
      14  | 59:49.58 |    5:44.21   |      269233      |     295053
Характеристики диапазона извлечения и сообщения об ошибках
Выбранный диапазон
     Имя файла O:\На трекер\Xiescive - Nexus.wav
     Пиковый уровень 100.0 %
     Качество диапазона 99.9 %
     CRC теста 80AD7B3F
     CRC копии 80AD7B3F
     Копирование... OK
Ошибок не произошло
AccurateRip: сводка
Трек  1  нет в базе данных
Трек  2  нет в базе данных
Трек  3  нет в базе данных
Трек  4  нет в базе данных
Трек  5  нет в базе данных
Трек  6  нет в базе данных
Трек  7  нет в базе данных
Трек  8  нет в базе данных
Трек  9  нет в базе данных
Трек 10  нет в базе данных
Трек 11  нет в базе данных
Трек 12  нет в базе данных
Трек 13  нет в базе данных
Трек 14  нет в базе данных
Ни одного трека нет в базе AccurateRip
Конец отчёта
Правила, инструкции, FAQ!!!
Торрент  Добавлен [26 июн 2020, 20:16] Скачать торрент Магнет ссылка
Скачать торрент
[ Размер 20.17 КБ / Просмотров 11 ]

Статус
Проверен 
 
Размер  493.71 МБ
Приватный: Нет (DHT включён)
.torrent скачан  0
 


     Отправить личное сообщение
   
Страница 1 из 1
Показать сообщения за:  Поле сортировки  
Начать новую тему Ответить на тему


Сейчас этот форум просматривают: нет зарегистрированных пользователей и гости: 0


Вы не можете начинать темы
Вы не можете отвечать на сообщения
Вы не можете редактировать свои сообщения
Вы не можете удалять свои сообщения
Вы не можете добавлять вложения

Перейти:  
cron