Начать новую тему Ответить на тему
Статистика раздачи
Размер: 448.83 МБ | Добавлен: 26 июн 2020, 20:16 | Скачали: 0
Сидеров: 0  [0 байт/сек]    Личеров: 0  [0 байт/сек]
Пред. тема | След. тема 

Автор
Сообщение

СообщениеДобавлено: 26 июн 2020, 20:16 

Ответить с цитатой 

The Dark Unspoken / Diode In Your Head
Жанр: dark electro
Страна-производитель диска: Germany
Год издания: 2010
Издатель (лейбл): Echozone
Номер по каталогу: EZ10C482
Аудиокодек: FLAC (*.flac)
Тип рипа: image+.cue
Битрейт аудио: lossless
Продолжительность: 1:00:13.06
Источник (релизер): Физический носитель
Наличие сканов в содержимом раздачи: да
Треклист:
01. Angels In The Summerrain [5:48]
02. Buried In Wonderland [4:19]
03. One Day [4:22]
04. Diode In Your Head? [4:58]
05. Abandon Thrill [3:47]
06. Won't Sell Your Will [5:36]
07. Abnormis [4:53]
08. Growing Paintree [6:28]
09. Ich Mache Die Maschinen [5:00]
10. Painful Heaven [4:52]
11. Wild Life [5:20]
12. Decisions [4:51]
Код:
Exact Audio Copy V1.0 beta 3 from 29. August 2011
Отчёт EAC об извлечении, выполненном 4. марта 2012, 21:29
The Dark Unspoken / Diode In Your Head?
Дисковод: PIONEER DVD-RW  DVR-XD10   Adapter: 3  ID: 0
Режим чтения                 : Достоверность
Использование точного потока : Да
Отключение кэша аудио        : Да
Использование указателей C2  : Нет
Коррекция смещения при чтении                     : 96
Способность читать области Lead-in и Lead-out     : Нет
Заполнение пропущенных сэмплов тишиной            : Да
Удаление блоков с тишиной в начале и конце        : Нет
При вычислениях CRC использовались нулевые сэмплы : Да
Интерфейс                                         : Встроенный Win32-интерфейс для Win NT/2000
Выходной формат          : Пользовательский кодировщик
Выбранный битрейт        : 1024 kBit/s
Качество                 : Высокий
Добавление ID3-тега      : Нет
Утилита сжатия           : C:\Program Files\Exact Audio Copy\FLAC\FLAC.EXE
Дополнительные параметры : -6 -V -T "ARTIST=%artist%" -T "TITLE=%title%" -T "ALBUM=%albumtitle%" -T "DATE=%year%" -T "TRACKNUMBER=%tracknr%" -T "GENRE=%genre%" -T "COMMENT=%comment%" -T "BAND=%albuminterpret%" -T "ALBUMARTIST=%albuminterpret%" -T "COMPOSER=%composer%" %haslyrics%--tag-from-file=LYRICS="%lyricsfile%"%haslyrics% -T "DISCNUMBER=%cdnumber%" -T "TOTALDISCS=%totalcds%" -T "TOTALTRACKS=%numtracks%" %hascover%--picture="%coverfile%"%hascover% %source% -o %dest%
TOC извлечённого CD
     Трек |   Старт  | Длительность | Начальный сектор | Конечный сектор
    ---------------------------------------------------------------------
       1  |  0:00.00 |    5:48.02   |           0      |      26101
       2  |  5:48.02 |    4:18.38   |       26102      |      45489
       3  | 10:06.40 |    4:21.39   |       45490      |      65103
       4  | 14:28.04 |    4:58.12   |       65104      |      87465
       5  | 19:26.16 |    3:46.48   |       87466      |     104463
       6  | 23:12.64 |    5:35.45   |      104464      |     129633
       7  | 28:48.34 |    4:53.08   |      129634      |     151616
       8  | 33:41.42 |    6:27.70   |      151617      |     180711
       9  | 40:09.37 |    5:00.04   |      180712      |     203215
      10  | 45:09.41 |    4:52.25   |      203216      |     225140
      11  | 50:01.66 |    5:20.19   |      225141      |     249159
      12  | 55:22.10 |    4:50.71   |      249160      |     270980
Характеристики диапазона извлечения и сообщения об ошибках
Выбранный диапазон
     Имя файла C:\Documents and Settings\Наташка\Рабочий стол\The Dark Unspoken - Diode In Your Head.wav
     Пиковый уровень 100.0 %
     Скорость извлечения 3.9 X
     Качество диапазона 100.0 %
     CRC теста 90A31FF9
     CRC копии 90A31FF9
     Копирование... OK
Ошибок не произошло
AccurateRip: сводка
Трек  1  отсутствует в базе данных
Трек  2  отсутствует в базе данных
Трек  3  отсутствует в базе данных
Трек  4  отсутствует в базе данных
Трек  5  отсутствует в базе данных
Трек  6  отсутствует в базе данных
Трек  7  отсутствует в базе данных
Трек  8  отсутствует в базе данных
Трек  9  отсутствует в базе данных
Трек 10  отсутствует в базе данных
Трек 11  отсутствует в базе данных
Трек 12  отсутствует в базе данных
Ни одного трека нет в базе AccurateRip
Конец отчёта
==== Контрольная сумма отчёта EFC9749B1126DCF7D6860C00083114C2AEB8CF447E6C883125D784E45B2586EF ====
Правила, инструкции, FAQ!!!
Торрент  Добавлен [26 июн 2020, 20:16] Скачать торрент Магнет ссылка
Скачать торрент
[ Размер 18.57 КБ / Просмотров 11 ]

Статус
Проверен 
 
Размер  448.83 МБ
Приватный: Нет (DHT включён)
.torrent скачан  0
 


     Отправить личное сообщение
   
Страница 1 из 1
Показать сообщения за:  Поле сортировки  
Начать новую тему Ответить на тему


Сейчас этот форум просматривают: нет зарегистрированных пользователей и гости: 0


Вы не можете начинать темы
Вы не можете отвечать на сообщения
Вы не можете редактировать свои сообщения
Вы не можете удалять свои сообщения
Вы не можете добавлять вложения

Перейти:  
cron