Начать новую тему Ответить на тему
Статистика раздачи
Размер: 458.93 МБ | Добавлен: 26 июн 2020, 20:16 | Скачали: 0
Сидеров: 0  [0 байт/сек]    Личеров: 0  [0 байт/сек]
Пред. тема | След. тема 

Автор
Сообщение

СообщениеДобавлено: 26 июн 2020, 20:16 

Ответить с цитатой 

The Dark Unspoken / Die By Echoes
Жанр: dark electro
Страна-производитель диска: Germany
Год издания: 2005
Издатель (лейбл): Darkun RatRec
Аудиокодек: FLAC (*.flac)
Тип рипа: image+.cue
Битрейт аудио: lossless
Продолжительность: 54:54.11
Источник (релизер): Физический носитель
Наличие сканов в содержимом раздачи: да
Треклист:
01. Glaube [5:13]
02. Seed Of Truth [4:39]
03. Sehen [5:11]
04. Gothics Never So Sick [3:12]
05. Die By Echoes [4:05]
06. Hexen [4:08]
07. Visions Deceased (Crunch mix) [4:03]
08. Never Pray [4:07]
09. Dunkle Wellen [3:09]
10. Ich Schleich Umher [3:26]
11. Kinderschreie (Instrumental) [13:41]
Код:
Exact Audio Copy V1.0 beta 3 from 29. August 2011
Отчёт EAC об извлечении, выполненном 4. марта 2012, 20:51
The Dark Unspoken / Die By Echoes
Дисковод: PIONEER DVD-RW  DVR-XD10   Adapter: 3  ID: 0
Режим чтения                 : Достоверность
Использование точного потока : Да
Отключение кэша аудио        : Да
Использование указателей C2  : Нет
Коррекция смещения при чтении                     : 96
Способность читать области Lead-in и Lead-out     : Нет
Заполнение пропущенных сэмплов тишиной            : Да
Удаление блоков с тишиной в начале и конце        : Нет
При вычислениях CRC использовались нулевые сэмплы : Да
Интерфейс                                         : Встроенный Win32-интерфейс для Win NT/2000
Выходной формат          : Пользовательский кодировщик
Выбранный битрейт        : 1024 kBit/s
Качество                 : Высокий
Добавление ID3-тега      : Нет
Утилита сжатия           : C:\Program Files\Exact Audio Copy\FLAC\FLAC.EXE
Дополнительные параметры : -6 -V -T "ARTIST=%artist%" -T "TITLE=%title%" -T "ALBUM=%albumtitle%" -T "DATE=%year%" -T "TRACKNUMBER=%tracknr%" -T "GENRE=%genre%" -T "COMMENT=%comment%" -T "BAND=%albuminterpret%" -T "ALBUMARTIST=%albuminterpret%" -T "COMPOSER=%composer%" %haslyrics%--tag-from-file=LYRICS="%lyricsfile%"%haslyrics% -T "DISCNUMBER=%cdnumber%" -T "TOTALDISCS=%totalcds%" -T "TOTALTRACKS=%numtracks%" %hascover%--picture="%coverfile%"%hascover% %source% -o %dest%
TOC извлечённого CD
     Трек |   Старт  | Длительность | Начальный сектор | Конечный сектор
    ---------------------------------------------------------------------
       1  |  0:00.00 |    5:12.56   |           0      |      23455
       2  |  5:12.56 |    4:39.03   |       23456      |      44383
       3  |  9:51.59 |    5:11.30   |       44384      |      67738
       4  | 15:03.14 |    3:12.24   |       67739      |      82162
       5  | 18:15.38 |    4:04.74   |       82163      |     100536
       6  | 22:20.37 |    4:07.65   |      100537      |     119126
       7  | 26:28.27 |    4:02.42   |      119127      |     137318
       8  | 30:30.69 |    4:07.31   |      137319      |     155874
       9  | 34:38.25 |    3:08.47   |      155875      |     170021
      10  | 37:46.72 |    3:25.55   |      170022      |     185451
      11  | 41:12.52 |   13:41.34   |      185452      |     247060
      12  | 57:26.11 |   10:26.16   |      258461      |     305426
Характеристики диапазона извлечения и сообщения об ошибках
Выбранный диапазон
     Имя файла C:\Documents and Settings\Наташка\Рабочий стол\The Dark Unspoken - Die By Echoes.wav
     Пиковый уровень 98.8 %
     Скорость извлечения 3.8 X
     Качество диапазона 100.0 %
     CRC теста 4CD71336
     CRC копии 4CD71336
     Копирование... OK
Ошибок не произошло
AccurateRip: сводка
Трек  1  отсутствует в базе данных
Трек  2  отсутствует в базе данных
Трек  3  отсутствует в базе данных
Трек  4  отсутствует в базе данных
Трек  5  отсутствует в базе данных
Трек  6  отсутствует в базе данных
Трек  7  отсутствует в базе данных
Трек  8  отсутствует в базе данных
Трек  9  отсутствует в базе данных
Трек 10  отсутствует в базе данных
Трек 11  отсутствует в базе данных
Ни одного трека нет в базе AccurateRip
Конец отчёта
==== Контрольная сумма отчёта A6D656118AB15BD38285F9B701D78452FE08764D92BFFB37014D3F2D527D7394 ====
Код:
*** VIDEO INFO ***
Input Type : YUY2(RAW)
Input Size : 480 x 576
Output Type : YUY2
Output Size : 480 x 576
FrameRate(Frame/sec) : 0.00 (25.00)
*** AUDIO INFO ***
SampleRate(Sample/sec) : 44100
BitRate(Bit/sample) : 16
Channels : 2
KBitRate(KBit/sec) : 256
Правила, инструкции, FAQ!!!
Торрент  Добавлен [26 июн 2020, 20:16] Скачать торрент Магнет ссылка
Скачать торрент
[ Размер 18.99 КБ / Просмотров 10 ]

Статус
Проверен 
 
Размер  458.93 МБ
Приватный: Нет (DHT включён)
.torrent скачан  0
 


     Отправить личное сообщение
   
Страница 1 из 1
Показать сообщения за:  Поле сортировки  
Начать новую тему Ответить на тему


Сейчас этот форум просматривают: нет зарегистрированных пользователей и гости: 0


Вы не можете начинать темы
Вы не можете отвечать на сообщения
Вы не можете редактировать свои сообщения
Вы не можете удалять свои сообщения
Вы не можете добавлять вложения

Перейти:  
cron