Начать новую тему Ответить на тему
Статистика раздачи
Размер: 454.66 МБ | Добавлен: 26 июн 2020, 19:26 | Скачали: 0
Сидеров: 0  [0 байт/сек]    Личеров: 0  [0 байт/сек]
Пред. тема | След. тема 

Автор
Сообщение

СообщениеДобавлено: 26 июн 2020, 19:26 

Ответить с цитатой 

Anthracitic Moths / Zwoelf (Remix Album)
Жанр: Dark Electro, TBM, Rhythmic Noise
Страна-производитель диска: Russia
Год издания диска: 2012
Издатель (лейбл): http://synth-me.ru
Номер по каталогу: SM001
Страна: Russia
Аудиокодек: FLAC (*.flac)
Тип рипа: tracks+.cue
Битрейт аудио: lossless
Продолжительность: 56:06
Источник (релизер): http://synth-me.ru
Наличие сканов в содержимом раздачи: нет
Треклист:
1. Biomass (Original Version) (4:17)
2. Shagom Marsh (Wormz 100% Reload) (3:46)
3. Biomass (Refixed by Virgin Fix & Diezel Xzaust) (6:10)
4. Shagom Marsh (Dioxin Mix) (3:42)
5. Biomass (Zweifelhaft Mix) (3:47)
6. Shagom Marsh (Pray Project Dub Tune Mix) (3:07)
7. Biomass (Remixed by Cutoff:Sky) (8:17)
8. Shagom Marsh (DJ Rentgen Exp. Mix) (2:51)
9. Biomass (Remix by Tatlum) (4:11)
10. Shagom Marsh (Sleetgrout Mix) (3:31)
11. Biomass (RSM Mix) (4:07)
12. Shagom Marsh (Distorted World Sympho Remix) (3:51)
13. Zwoelf (4:29)
Код:
Exact Audio Copy V1.0 beta 2 from 29. April 2011
EAC extraction logfile from 15. February 2012, 12:29
Anthracitic Moths / Zwoelf
Used drive  : Optiarc DVD RW AD-7260S   Adapter: 2  ID: 0
Read mode               : Secure
Utilize accurate stream : Yes
Defeat audio cache      : Yes
Make use of C2 pointers : No
Read offset correction                      : 48
Overread into Lead-In and Lead-Out          : No
Fill up missing offset samples with silence : Yes
Delete leading and trailing silent blocks   : No
Null samples used in CRC calculations       : Yes
Used interface                              : Native Win32 interface for Win NT & 2000
Gap handling                                : Appended to previous track
Used output format              : User Defined Encoder
Selected bitrate                : 768 kBit/s
Quality                         : High
Add ID3 tag                     : No
Command line compressor         : C:\Program Files\FLAC\FLAC frontend.exe
Additional command line options : -V -8 -T "Genre=%genre%" -T "Artist=%artist%" -T "Title=%title%" -T "Album=%albumtitle%" -T "Date=%year%" -T "Tracknumber=%tracknr%" -T "Comment=%comment%" %source%
TOC of the extracted CD
     Track |   Start  |  Length  | Start sector | End sector
    ---------------------------------------------------------
        1  |  0:00.00 |  4:17.10 |         0    |    19284
        2  |  4:17.10 |  3:46.37 |     19285    |    36271
        3  |  8:03.47 |  6:10.22 |     36272    |    64043
        4  | 14:13.69 |  3:42.68 |     64044    |    80761
        5  | 17:56.62 |  3:47.09 |     80762    |    97795
        6  | 21:43.71 |  3:07.16 |     97796    |   111836
        7  | 24:51.12 |  8:17.10 |    111837    |   149121
        8  | 33:08.22 |  2:51.01 |    149122    |   161947
        9  | 35:59.23 |  4:11.47 |    161948    |   180819
       10  | 40:10.70 |  3:31.15 |    180820    |   196659
       11  | 43:42.10 |  4:07.22 |    196660    |   215206
       12  | 47:49.32 |  3:50.70 |    215207    |   232526
       13  | 51:40.27 |  4:29.40 |    232527    |   252741
Track  1
     Filename E:\Anthracitic Moths - Zwoelf (2012) [sm001]-flac\01. Biomass (Original Version).wav
     Pre-gap length  0:00:02.00
     Peak level 100.0 %
     Extraction speed 2.6 X
     Track quality 100.0 %
     Copy CRC 3EB7161E
     Copy OK
Track  2
     Filename E:\Anthracitic Moths - Zwoelf (2012) [sm001]-flac\02. Shagom Marsh (Wormz 100% Reload).wav
     Peak level 100.0 %
     Extraction speed 2.8 X
     Track quality 100.0 %
     Copy CRC 9F325965
     Copy OK
Track  3
     Filename E:\Anthracitic Moths - Zwoelf (2012) [sm001]-flac\03. Biomass (Refixed by Virgin Fix & Diezel Xzaust).wav
     Peak level 100.0 %
     Extraction speed 3.3 X
     Track quality 100.0 %
     Copy CRC CF184B23
     Copy OK
Track  4
     Filename E:\Anthracitic Moths - Zwoelf (2012) [sm001]-flac\04. Shagom Marsh (Dioxin Mix).wav
     Peak level 100.0 %
     Extraction speed 3.4 X
     Track quality 100.0 %
     Copy CRC 3377DBF4
     Copy OK
Track  5
     Filename E:\Anthracitic Moths - Zwoelf (2012) [sm001]-flac\05. Biomass (Zweifelhaft Mix).wav
     Peak level 100.0 %
     Extraction speed 3.5 X
     Track quality 100.0 %
     Copy CRC FF35878E
     Copy OK
Track  6
     Filename E:\Anthracitic Moths - Zwoelf (2012) [sm001]-flac\06. Shagom Marsh (Pray Project Dub Tune Mix).wav
     Peak level 100.0 %
     Extraction speed 3.0 X
     Track quality 99.9 %
     Copy CRC 16AC2DCC
     Copy OK
Track  7
     Filename E:\Anthracitic Moths - Zwoelf (2012) [sm001]-flac\07. Biomass (Remixed by Cutoff-Sky).wav
     Peak level 100.0 %
     Extraction speed 4.2 X
     Track quality 100.0 %
     Copy CRC 057133F5
     Copy OK
Track  8
     Filename E:\Anthracitic Moths - Zwoelf (2012) [sm001]-flac\08. Shagom Marsh (DJ Rentgen Exp. Mix).wav
     Peak level 100.0 %
     Extraction speed 3.9 X
     Track quality 100.0 %
     Copy CRC D9944C63
     Copy OK
Track  9
     Filename E:\Anthracitic Moths - Zwoelf (2012) [sm001]-flac\09. Biomass (Remix by Tatlum).wav
     Peak level 100.0 %
     Extraction speed 3.8 X
     Track quality 99.9 %
     Copy CRC 97E2C6E3
     Copy OK
Track 10
     Filename E:\Anthracitic Moths - Zwoelf (2012) [sm001]-flac\10. Shagom Marsh (Sleetgrout Mix).wav
     Peak level 100.0 %
     Extraction speed 4.4 X
     Track quality 100.0 %
     Copy CRC 96FA613F
     Copy OK
Track 11
     Filename E:\Anthracitic Moths - Zwoelf (2012) [sm001]-flac\11. Biomass (RSM Mix).wav
     Peak level 100.0 %
     Extraction speed 4.0 X
     Track quality 99.9 %
     Copy CRC DDC84F34
     Copy OK
Track 12
     Filename E:\Anthracitic Moths - Zwoelf (2012) [sm001]-flac\12. Shagom Marsh (Distorted World Sympho Remix).wav
     Peak level 100.0 %
     Extraction speed 4.7 X
     Track quality 100.0 %
     Copy CRC B21D2148
     Copy OK
Track 13
     Filename E:\Anthracitic Moths - Zwoelf (2012) [sm001]-flac\13. Zwoelf.wav
     Peak level 93.7 %
     Extraction speed 4.9 X
     Track quality 100.0 %
     Copy CRC FF7C2F9E
     Copy OK
No errors occurred
End of status report
==== Log checksum 8C37C6D8834A583A6958A0A8DB2DB5B40FEDB93C12FB65E901725CEDC4A5F149 ====
Код:
REM GENRE Electronic
REM DATE 2012
REM DISCID AB0D290D
REM COMMENT "ExactAudioCopy v1.0b2"
PERFORMER "Anthracitic Moths"
TITLE "Zwoelf"
FILE "01. Biomass (Original Version).wav" WAVE
  TRACK 01 AUDIO
    TITLE "Biomass (Original Version)"
    PERFORMER "Anthracitic Moths"
    INDEX 01 00:00:00
FILE "02. Shagom Marsh (Wormz 100% Reload).wav" WAVE
  TRACK 02 AUDIO
    TITLE "Shagom Marsh (Wormz 100% Reload)"
    PERFORMER "Anthracitic Moths"
    INDEX 01 00:00:00
FILE "03. Biomass (Refixed by Virgin Fix & Diezel Xzaust).wav" WAVE
  TRACK 03 AUDIO
    TITLE "Biomass (Refixed by Virgin Fix & Diezel Xzaust)"
    PERFORMER "Anthracitic Moths"
    INDEX 01 00:00:00
FILE "04. Shagom Marsh (Dioxin Mix).wav" WAVE
  TRACK 04 AUDIO
    TITLE "Shagom Marsh (Dioxin Mix)"
    PERFORMER "Anthracitic Moths"
    INDEX 01 00:00:00
FILE "05. Biomass (Zweifelhaft Mix).wav" WAVE
  TRACK 05 AUDIO
    TITLE "Biomass (Zweifelhaft Mix)"
    PERFORMER "Anthracitic Moths"
    INDEX 01 00:00:00
FILE "06. Shagom Marsh (Pray Project Dub Tune Mix).wav" WAVE
  TRACK 06 AUDIO
    TITLE "Shagom Marsh (Pray Project Dub Tune Mix)"
    PERFORMER "Anthracitic Moths"
    INDEX 01 00:00:00
FILE "07. Biomass (Remixed by Cutoff-Sky).wav" WAVE
  TRACK 07 AUDIO
    TITLE "Biomass (Remixed by Cutoff:Sky)"
    PERFORMER "Anthracitic Moths"
    INDEX 01 00:00:00
FILE "08. Shagom Marsh (DJ Rentgen Exp. Mix).wav" WAVE
  TRACK 08 AUDIO
    TITLE "Shagom Marsh (DJ Rentgen Exp. Mix)"
    PERFORMER "Anthracitic Moths"
    INDEX 01 00:00:00
FILE "09. Biomass (Remix by Tatlum).wav" WAVE
  TRACK 09 AUDIO
    TITLE "Biomass (Remix by Tatlum)"
    PERFORMER "Anthracitic Moths"
    INDEX 01 00:00:00
FILE "10. Shagom Marsh (Sleetgrout Mix).wav" WAVE
  TRACK 10 AUDIO
    TITLE "Shagom Marsh (Sleetgrout Mix)"
    PERFORMER "Anthracitic Moths"
    INDEX 01 00:00:00
FILE "11. Biomass (RSM Mix).wav" WAVE
  TRACK 11 AUDIO
    TITLE "Biomass (RSM Mix)"
    PERFORMER "Anthracitic Moths"
    INDEX 01 00:00:00
FILE "12. Shagom Marsh (Distorted World Sympho Remix).wav" WAVE
  TRACK 12 AUDIO
    TITLE "Shagom Marsh (Distorted World Sympho Remix)"
    PERFORMER "Anthracitic Moths"
    INDEX 01 00:00:00
FILE "13. Zwoelf.wav" WAVE
  TRACK 13 AUDIO
    TITLE "Zwoelf"
    PERFORMER "Anthracitic Moths"
    INDEX 01 00:00:00
Код:
AUDIOCHECKER v2.0 beta (build 457) - by Dester - opdester@freemail.hu
~~~~~~~~~~~~~~~~~~~~~~~~~~~~~~~~~~
-=== DO NOT EDIT THIS FILE! ===-
Path: ...\Anthracitic Moths - Zwoelf (2012) [sm001]-flac
01 -=- 01. Biomass (Original Version).flac -=- CDDA (100%)
02 -=- 02. Shagom Marsh (Wormz 100% Reload).flac -=- CDDA (100%)
03 -=- 03. Biomass (Refixed by Virgin Fix & Diezel Xzaust).flac -=- CDDA (100%)
04 -=- 04. Shagom Marsh (Dioxin Mix).flac -=- CDDA (100%)
05 -=- 05. Biomass (Zweifelhaft Mix).flac -=- CDDA (100%)
06 -=- 06. Shagom Marsh (Pray Project Dub Tune Mix).flac -=- CDDA (100%)
07 -=- 07. Biomass (Remixed by Cutoff-Sky).flac -=- CDDA (100%)
08 -=- 08. Shagom Marsh (DJ Rentgen Exp. Mix).flac -=- CDDA (100%)
09 -=- 09. Biomass (Remix by Tatlum).flac -=- CDDA (100%)
10 -=- 10. Shagom Marsh (Sleetgrout Mix).flac -=- CDDA (100%)
11 -=- 11. Biomass (RSM Mix).flac -=- CDDA (100%)
12 -=- 12. Shagom Marsh (Distorted World Sympho Remix).flac -=- CDDA (100%)
13 -=- 13. Zwoelf.flac -=- CDDA (100%)
Summary 100,00% CDDA
267424004
Доп. информация:
http://vk.com/club12506909
http://myspace.com/anthraciticmoths
http://synth-me.ru
Правила, инструкции, FAQ!!!
Торрент  Добавлен [26 июн 2020, 19:26] Скачать торрент Магнет ссылка
Скачать торрент
[ Размер 19.56 КБ / Просмотров 11 ]

Статус
Проверен 
 
Размер  454.66 МБ
Приватный: Нет (DHT включён)
.torrent скачан  0
 


     Отправить личное сообщение
   
Страница 1 из 1
Показать сообщения за:  Поле сортировки  
Начать новую тему Ответить на тему


Сейчас этот форум просматривают: нет зарегистрированных пользователей и гости: 0


Вы не можете начинать темы
Вы не можете отвечать на сообщения
Вы не можете редактировать свои сообщения
Вы не можете удалять свои сообщения
Вы не можете добавлять вложения

Перейти:  
cron