Начать новую тему Ответить на тему
Статистика раздачи
Размер: 510.35 МБ | Добавлен: 26 июн 2020, 17:11 | Скачали: 0
Сидеров: 0  [0 байт/сек]    Личеров: 0  [0 байт/сек]
Пред. тема | След. тема 

Автор
Сообщение

СообщениеДобавлено: 26 июн 2020, 17:11 

Ответить с цитатой 

Surgyn / Vanity [Limited 1st Edition (DeathWatchAsia#DWA 167)]
Жанр: Dark Electro, TBM, EBM
Страна-производитель диска: Japan/Taiwan/China
Год издания: 2011
Издатель (лейбл): DeathWatchAsia
Номер по каталогу: DWA 167
Страна: UK
Аудиокодек: FLAC (*.flac)
Тип рипа: image+.cue
Битрейт аудио: lossless
Источник (релизер): собственный рип с фирменного CD
Наличие сканов в содержимом раздачи: нет
Треклист:
01. Beauty 01:25
02. Sever 05:08
03. 400 03:50
04. The Stranger 04:27
05. Code Black 04:23
06. Aesthetics (Are A Moral Imperative) 04:37
07. Faceless 04:50
08. Haemorrhage 04:09
09. Speak No More 05:21
10. Hit The Nerve 04:53
11. Sharp As Stars 04:44
12. Speak No More (Phosgore Remix) 03:25
13. Hit The Nerve (Modulate Remix) 04:30
14. Sever (Soman Remix) 06:54
15. Aesthetics (Sin Deep Mix By Caustic) 04:12
16. Agony (Outro) 01:27
Код:
Exact Audio Copy V1.0 beta 3 from 29. August 2011
EAC extraction logfile from 11. April 2013, 19:42
Surgyn / Vanity
Used drive  : Optiarc DVD RW AD-5200S   Adapter: 1  ID: 0
Read mode               : Secure
Utilize accurate stream : Yes
Defeat audio cache      : Yes
Make use of C2 pointers : No
Read offset correction                      : 48
Overread into Lead-In and Lead-Out          : No
Fill up missing offset samples with silence : Yes
Delete leading and trailing silent blocks   : No
Null samples used in CRC calculations       : Yes
Used interface                              : Native Win32 interface for Win NT & 2000
Used output format              : User Defined Encoder
Selected bitrate                : 128 kBit/s
Quality                         : High
Add ID3 tag                     : No
Command line compressor         : C:\Program Files\FLAC\flac.exe
Additional command line options : -V -8 -T "Date=%year%" -T "Genre=%genre%" %source%
TOC of the extracted CD
     Track |   Start  |  Length  | Start sector | End sector
    ---------------------------------------------------------
        1  |  0:00.00 |  1:25.04 |         0    |     6378
        2  |  1:25.04 |  5:07.46 |      6379    |    29449
        3  |  6:32.50 |  3:49.47 |     29450    |    46671
        4  | 10:22.22 |  4:26.70 |     46672    |    66691
        5  | 14:49.17 |  4:23.16 |     66692    |    86432
        6  | 19:12.33 |  4:36.65 |     86433    |   107197
        7  | 23:49.23 |  4:50.07 |    107198    |   128954
        8  | 28:39.30 |  4:09.23 |    128955    |   147652
        9  | 32:48.53 |  5:21.34 |    147653    |   171761
       10  | 38:10.12 |  4:53.18 |    171762    |   193754
       11  | 43:03.30 |  4:43.70 |    193755    |   215049
       12  | 47:47.25 |  3:24.54 |    215050    |   230403
       13  | 51:12.04 |  4:29.60 |    230404    |   250638
       14  | 55:41.64 |  6:53.61 |    250639    |   281674
       15  | 62:35.50 |  4:11.51 |    281675    |   300550
       16  | 66:47.26 |  1:26.45 |    300551    |   307045
Range status and errors
Selected range
     Filename G:\Rips\Surgyn - Vanity.wav
     Peak level 100.0 %
     Extraction speed 4.3 X
     Range quality 100.0 %
     Test CRC F1C9C4D2
     Copy CRC F1C9C4D2
     Copy OK
No errors occurred
AccurateRip summary
Track  1  not present in database
Track  2  not present in database
Track  3  not present in database
Track  4  not present in database
Track  5  not present in database
Track  6  not present in database
Track  7  not present in database
Track  8  not present in database
Track  9  not present in database
Track 10  not present in database
Track 11  not present in database
Track 12  not present in database
Track 13  not present in database
Track 14  not present in database
Track 15  not present in database
Track 16  not present in database
None of the tracks are present in the AccurateRip database
End of status report
==== Log checksum B65A378581AE79174392FA87D5C9457699157FF3A19CFFF53569C7EA62E877EA ====
Код:
REM GENRE TBM
REM DATE 2011
REM DISCID E90FFD10
REM COMMENT "ExactAudioCopy v1.0b3"
PERFORMER "Surgyn"
TITLE "Vanity"
FILE "Surgyn - Vanity.flac" WAVE
  TRACK 01 AUDIO
    TITLE "Beauty [Intro]"
    PERFORMER "Surgyn"
    INDEX 01 00:00:00
  TRACK 02 AUDIO
    TITLE "Sever"
    PERFORMER "Surgyn"
    INDEX 00 01:24:72
    INDEX 01 01:25:04
  TRACK 03 AUDIO
    TITLE "400"
    PERFORMER "Surgyn"
    INDEX 00 06:32:41
    INDEX 01 06:32:50
  TRACK 04 AUDIO
    TITLE "The Stranger"
    PERFORMER "Surgyn"
    INDEX 00 10:22:09
    INDEX 01 10:22:22
  TRACK 05 AUDIO
    TITLE "Code Black"
    PERFORMER "Surgyn"
    INDEX 00 14:47:18
    INDEX 01 14:49:17
  TRACK 06 AUDIO
    TITLE "Aesthetics [Are A Moral Imperative]"
    PERFORMER "Surgyn"
    INDEX 00 19:12:25
    INDEX 01 19:12:33
  TRACK 07 AUDIO
    TITLE "Faceless"
    PERFORMER "Surgyn"
    INDEX 00 23:49:10
    INDEX 01 23:49:23
  TRACK 08 AUDIO
    TITLE "Haemorrhage"
    PERFORMER "Surgyn"
    INDEX 00 28:39:29
    INDEX 01 28:39:30
  TRACK 09 AUDIO
    TITLE "Speak No More"
    PERFORMER "Surgyn"
    INDEX 00 32:48:43
    INDEX 01 32:48:53
  TRACK 10 AUDIO
    TITLE "Hit The Nerve "
    PERFORMER "Surgyn"
    INDEX 00 38:10:03
    INDEX 01 38:10:12
  TRACK 11 AUDIO
    TITLE "Sharp As Stars"
    PERFORMER "Surgyn"
    INDEX 00 43:03:27
    INDEX 01 43:03:30
  TRACK 12 AUDIO
    TITLE "Speak No More [PHOSGORE Remix]"
    PERFORMER "Surgyn"
    INDEX 00 47:47:01
    INDEX 01 47:47:25
  TRACK 13 AUDIO
    TITLE "Hit The Nerve [MODULATE Remix]"
    PERFORMER "Surgyn"
    INDEX 00 51:10:05
    INDEX 01 51:12:04
  TRACK 14 AUDIO
    TITLE "Sever [SOMAN Remix]"
    PERFORMER "Surgyn"
    INDEX 00 55:40:29
    INDEX 01 55:41:64
  TRACK 15 AUDIO
    TITLE "Aesthetics [Sin Deep Mix By CAUSTIC]"
    PERFORMER "Surgyn"
    INDEX 00 62:35:07
    INDEX 01 62:35:50
  TRACK 16 AUDIO
    TITLE "Agony [Outro]"
    PERFORMER "Surgyn"
    INDEX 00 66:46:60
    INDEX 01 66:47:26

Правила, инструкции, FAQ!!!
Торрент  Добавлен [26 июн 2020, 17:11] Скачать торрент Магнет ссылка
Скачать торрент
[ Размер 20.61 КБ / Просмотров 2 ]

Статус
Проверен 
 
Размер  510.35 МБ
Приватный: Нет (DHT включён)
.torrent скачан  0
 


     Отправить личное сообщение
   
Страница 1 из 1
Показать сообщения за:  Поле сортировки  
Начать новую тему Ответить на тему


Сейчас этот форум просматривают: нет зарегистрированных пользователей и гости: 0


Вы не можете начинать темы
Вы не можете отвечать на сообщения
Вы не можете редактировать свои сообщения
Вы не можете удалять свои сообщения
Вы не можете добавлять вложения

Перейти:  
cron