Начать новую тему Ответить на тему
Статистика раздачи
Размер: 603.98 МБ | Добавлен: 26 июн 2020, 20:34 | Скачали: 0
Сидеров: 0  [0 байт/сек]    Личеров: 0  [0 байт/сек]
Пред. тема | След. тема 

Автор
Сообщение

СообщениеДобавлено: 26 июн 2020, 20:34 

Ответить с цитатой 

Sleetgrout - Principle Of Dark Electro


Жанр: Dark Electro
Носитель: CD
Год издания: 2010
Издатель (лейбл): Shadowplay
Номер по каталогу: SPR 119
Страна исполнителя (группы): RF
Аудиокодек: FLAC (*.flac)
Тип рипа: image+.cue
Битрейт аудио: lossless
Продолжительность: 01:08:55
Источник: new-team
Спасибо: kergarn
Наличие сканов: да

01. Bog [00:03:56]
02. Another [00:03:51]
03. The Bad Dreams Transmission (feat. Margarita LacRoix) [00:04:25]
04. Bog (Old Vision) [00:03:31]
05. Rotten Reverie (Autumn mix B) [00:03:36]
06. Bog (Mnml mix) [00:03:23]
07. Bog (Techno Symphony by Wavefall) [00:05:32]
08. Pay for My Time (Torture Chamber remix by Sinthetic Squad) [00:05:17]
09. Bog (Eden Synthetic Corps rmx) [00:04:08]
10. Pay For My Time (Studio-X rmx) [00:06:47]
11. Bog (Alien Vampires rmx) [00:04:50]
12. Pay For My Time (Midnight mix by De-Source) [00:05:30]
13. Bog (DJ Archie L mix) [00:05:19]
14. Pay for My Time (Killer mix by Infra Black) [00:04:37]
15. Rotten Reverie (Sal Solaris rmx) [00:03:36]


Код:
Exact Audio Copy V1.0 beta 3 from 29. August 2011
Отчёт EAC об извлечении, выполненном 3. января 2015, 18:58
Sleetgrout / Principle Of Dark Electro
Дисковод: _NEC    DVD_RW ND-3520AW   Adapter: 0  ID: 1
Режим чтения                 : Достоверность
Использование точного потока : Да
Отключение кэша аудио        : Да
Использование указателей C2  : Нет
Коррекция смещения при чтении                     : 48
Способность читать области Lead-in и Lead-out     : Нет
Заполнение пропущенных сэмплов тишиной            : Да
Удаление блоков с тишиной в начале и конце        : Нет
При вычислениях CRC использовались нулевые сэмплы : Да
Интерфейс                                         : Встроенный Win32-интерфейс для Win NT/2000
Выходной формат          : Пользовательский кодировщик
Выбранный битрейт        : 1024 kBit/s
Качество                 : Высокий
Добавление ID3-тега      : Нет
Утилита сжатия           : C:\Program Files\Exact Audio Copy\Flac\flac.exe
Дополнительные параметры : -6 -V -T "Date=%year%" -T "Genre=%genre%" %source%
TOC извлечённого CD
     Трек |   Старт  | Длительность | Начальный сектор | Конечный сектор
    ---------------------------------------------------------------------
       1  |  0:00.00 |    3:58.34   |           0      |      17883
       2  |  3:58.34 |    3:53.30   |       17884      |      35388
       3  |  7:51.64 |    4:27.10   |       35389      |      55423
       4  | 12:18.74 |    3:33.10   |       55424      |      71408
       5  | 15:52.09 |    3:38.69   |       71409      |      87827
       6  | 19:31.03 |    3:25.33   |       87828      |     103235
       7  | 22:56.36 |    5:34.47   |      103236      |     128332
       8  | 28:31.08 |    5:19.31   |      128333      |     152288
       9  | 33:50.39 |    4:10.53   |      152289      |     171091
      10  | 38:01.17 |    6:49.74   |      171092      |     201840
      11  | 44:51.16 |    4:52.35   |      201841      |     223775
      12  | 49:43.51 |    5:32.13   |      223776      |     248688
      13  | 55:15.64 |    5:21.43   |      248689      |     272806
      14  | 60:37.32 |    4:39.28   |      272807      |     293759
      15  | 65:16.60 |    3:38.69   |      293760      |     310178
Характеристики диапазона извлечения и сообщения об ошибках
Выбранный диапазон
     Имя файла C:\Sleetgrout 2010-Principle Of Dark Electro (dark electro) [flac] 1085554 (Shadowplay, Russia) SPR 119\Sleetgrout - Principle Of Dark Electro.wav
     Пиковый уровень 100.0 %
     Скорость извлечения 2.3 X
     Качество диапазона 99.9 %
     CRC теста F4D3D96E
     CRC копии F4D3D96E
     Копирование... OK
Ошибок не произошло
AccurateRip: сводка
Трек  1  : извлечено точно (доверие 2)  [FADFC3AD]  (AR v1)
Трек  2  : извлечено точно (доверие 1)  [C72132CE]  (AR v1)
Трек  3  : извлечено точно (доверие 2)  [3F9EA5D4]  (AR v1)
Трек  4  : извлечено точно (доверие 2)  [16A0ADC3]  (AR v1)
Трек  5  : извлечено точно (доверие 2)  [B1192D33]  (AR v1)
Трек  6  : извлечено точно (доверие 2)  [A5A270F1]  (AR v1)
Трек  7  : извлечено точно (доверие 2)  [244199CE]  (AR v1)
Трек  8  : извлечено точно (доверие 2)  [81A6DA75]  (AR v1)
Трек  9  : извлечено точно (доверие 2)  [A97648EB]  (AR v1)
Трек 10  : извлечено точно (доверие 2)  [8D96AA9F]  (AR v1)
Трек 11  : извлечено точно (доверие 2)  [0327F529]  (AR v1)
Трек 12  : извлечено точно (доверие 2)  [DC1C8C02]  (AR v1)
Трек 13  : извлечено точно (доверие 2)  [385AB5A2]  (AR v1)
Трек 14  : извлечено точно (доверие 2)  [1F469D53]  (AR v1)
Трек 15  : извлечено точно (доверие 2)  [E02C75AD]  (AR v1)
Все треки извлечены точно
Конец отчёта
---- CUETools DB Plugin V2.1.4
[CTDB TOCID: 0Cr5VFB5WM7fLY5zUxrCCVOKpVM-] found
Submit result: 0Cr5VFB5WM7fLY5zUxrCCVOKpVM- has been confirmed
Track | CTDB Status
  1   | (2/2) Accurately ripped
  2   | (2/2) Accurately ripped
  3   | (2/2) Accurately ripped
  4   | (2/2) Accurately ripped
  5   | (2/2) Accurately ripped
  6   | (2/2) Accurately ripped
  7   | (2/2) Accurately ripped
  8   | (2/2) Accurately ripped
  9   | (2/2) Accurately ripped
 10   | (2/2) Accurately ripped
 11   | (2/2) Accurately ripped
 12   | (2/2) Accurately ripped
 13   | (1/2) Accurately ripped, or (1/2) differs in 492 samples @05:19:12-05:19:14,05:19:27-05:19:28
 14   | (2/2) Accurately ripped
 15   | (2/2) Accurately ripped
==== Контрольная сумма отчёта D3E71F6E46AEC7EBD225C0A0C2A2D3007D500CB51FC50CAF8C800882BC8ED111 ====
Код:
REM GENRE "dark electro"
REM DATE 2010
REM DISCID D810270F
REM COMMENT "ExactAudioCopy v1.0b3"
PERFORMER "Sleetgrout"
TITLE "Principle Of Dark Electro"
FILE "Sleetgrout - Principle Of Dark Electro.flac" WAVE
  TRACK 01 AUDIO
    TITLE "Bog"
    PERFORMER "Sleetgrout"
    ISRC 000000000000
    FLAGS DCP
    INDEX 01 00:00:00
  TRACK 02 AUDIO
    TITLE "Another"
    PERFORMER "Sleetgrout"
    ISRC 000000000000
    FLAGS DCP
    INDEX 00 03:56:34
    INDEX 01 03:58:34
  TRACK 03 AUDIO
    TITLE "The Bad Dreams Transmission (feat. Margarita LacRoix)"
    PERFORMER "Sleetgrout"
    ISRC 000000000000
    FLAGS DCP
    INDEX 00 07:49:64
    INDEX 01 07:51:64
  TRACK 04 AUDIO
    TITLE "Bog (Old Vision)"
    PERFORMER "Sleetgrout"
    ISRC 000000000000
    FLAGS DCP
    INDEX 00 12:16:74
    INDEX 01 12:18:74
  TRACK 05 AUDIO
    TITLE "Rotten Reverie (Autumn mix B)"
    PERFORMER "Sleetgrout"
    ISRC 000000000000
    FLAGS DCP
    INDEX 00 15:50:09
    INDEX 01 15:52:09
  TRACK 06 AUDIO
    TITLE "Bog (Mnml mix)"
    PERFORMER "Sleetgrout"
    ISRC 000000000000
    FLAGS DCP
    INDEX 00 19:29:03
    INDEX 01 19:31:03
  TRACK 07 AUDIO
    TITLE "Bog (Techno Symphony by Wavefall)"
    PERFORMER "Sleetgrout"
    ISRC 000000000000
    FLAGS DCP
    INDEX 00 22:54:36
    INDEX 01 22:56:36
  TRACK 08 AUDIO
    TITLE "Pay for My Time (Torture Chamber remix by Sinthetic Squad)"
    PERFORMER "Sleetgrout"
    ISRC 000000000000
    FLAGS DCP
    INDEX 00 28:29:08
    INDEX 01 28:31:08
  TRACK 09 AUDIO
    TITLE "Bog (Eden Synthetic Corps rmx)"
    PERFORMER "Sleetgrout"
    ISRC 000000000000
    FLAGS DCP
    INDEX 00 33:48:39
    INDEX 01 33:50:39
  TRACK 10 AUDIO
    TITLE "Pay For My Time (Studio-X rmx)"
    PERFORMER "Sleetgrout"
    ISRC 000000000000
    FLAGS DCP
    INDEX 00 37:59:17
    INDEX 01 38:01:17
  TRACK 11 AUDIO
    TITLE "Bog (Alien Vampires rmx)"
    PERFORMER "Sleetgrout"
    ISRC 000000000000
    FLAGS DCP
    INDEX 00 44:49:16
    INDEX 01 44:51:16
  TRACK 12 AUDIO
    TITLE "Pay For My Time (Midnight mix by De-Source)"
    PERFORMER "Sleetgrout"
    ISRC 000000000000
    FLAGS DCP
    INDEX 00 49:41:51
    INDEX 01 49:43:51
  TRACK 13 AUDIO
    TITLE "Bog (DJ Archie L mix)"
    PERFORMER "Sleetgrout"
    ISRC 000000000000
    FLAGS DCP
    INDEX 00 55:13:64
    INDEX 01 55:15:64
  TRACK 14 AUDIO
    TITLE "Pay for My Time (Killer mix by Infra Black)"
    PERFORMER "Sleetgrout"
    ISRC 000000000000
    FLAGS DCP
    INDEX 00 60:35:32
    INDEX 01 60:37:32
  TRACK 15 AUDIO
    TITLE "Rotten Reverie (Sal Solaris rmx)"
    PERFORMER "Sleetgrout"
    ISRC 000000000000
    FLAGS DCP
    INDEX 00 65:14:60
    INDEX 01 65:16:60
Код:
-----------------------
DON'T MODIFY THIS FILE
-----------------------
PERFORMER: auCDtect Task Manager, ver. 1.6.0 RC1 build 1.6.0.1
Copyright (c) 2008-2010 y-soft. All rights reserved
[url=http://y-soft.org]http://y-soft.org[/url]
ANALYZER: auCDtect: CD records authenticity detector, version 0.8.2
Copyright (c) 2004 Oleg Berngardt. All rights reserved.
Copyright (c) 2004 Alexander Djourik. All rights reserved.
FILE: Sleetgrout - Principle Of Dark Electro.flac
  Size: 553982765 Hash: 7E732307FDCE012C546EA5275B1FB2FB Accuracy: -m0
  Conclusion: CDDA 100%
  Signature: 780ACDC506695E88056A896B19A15A582033F032
Правила, инструкции, FAQ!!!
Торрент  Добавлен [26 июн 2020, 20:34] Скачать торрент Магнет ссылка
Скачать торрент
[ Размер 12.83 КБ / Просмотров 10 ]

Статус
Проверен 
 
Размер  603.98 МБ
Приватный: Нет (DHT включён)
.torrent скачан  0
 


     Отправить личное сообщение
   
Страница 1 из 1
Показать сообщения за:  Поле сортировки  
Начать новую тему Ответить на тему


Сейчас этот форум просматривают: нет зарегистрированных пользователей и гости: 0


Вы не можете начинать темы
Вы не можете отвечать на сообщения
Вы не можете редактировать свои сообщения
Вы не можете удалять свои сообщения
Вы не можете добавлять вложения

Перейти:  
cron