Начать новую тему Ответить на тему
Статистика раздачи
Размер: 362.82 МБ | Добавлен: 26 июн 2020, 16:53 | Скачали: 0
Сидеров: 0  [0 байт/сек]    Личеров: 0  [0 байт/сек]
Пред. тема | След. тема 

Автор
Сообщение

СообщениеДобавлено: 26 июн 2020, 16:53 

Ответить с цитатой 

Mindwerk Sampler
Жанр: dark electro
Носитель: CDR
Страна-производитель диска (релиза): Denmark
Год издания: 2001
Издатель (лейбл): Mindwerk
Страна исполнителя (группы): Denmark
Аудиокодек: FLAC (*.flac)
Тип рипа: tracks+.cue
Битрейт аудио: lossless
Продолжительность: 63:21.21
Источник (релизер): CD-R (собственная коллекция)
Наличие сканов в содержимом раздачи: нет
Треклист:
1 Volatile Artillery - OD (Version) 3:14
2 Volatile Artillery - Lost Emotions (Version) 6:16
3 Parkinson (2) - Eden Hell (Instrumental Version) 3:46
4 Parkinson (2) - Organism Rank 4:29
5 O'dem - Spectrum 6:31
6 O'dem - Pills, Drum 'n' Bass 5:11
7 Rash - The Strange Delight 5:54
8 Rash - What Were They? 5:30
9 Dead State 81 - Kosova (Version) 5:24
10 Dead State 81 - Synthetic Lies (Version) 5:40
11 Glass Description - Bliss Hunt 5:25
12 Glass Description - Final Bluff 5:56
Код:
Exact Audio Copy V0.99 prebeta 5 from 4. May 2009
EAC extraction logfile from 4. February 2011, 0:08
Various / Mindwerk Sampler 2001.04.18
Used drive  : Optiarc DVD RW AD-7240S   Adapter: 0  ID: 0
Read mode               : Secure
Utilize accurate stream : Yes
Defeat audio cache      : Yes
Make use of C2 pointers : No
Read offset correction                      : 48
Overread into Lead-In and Lead-Out          : No
Fill up missing offset samples with silence : Yes
Delete leading and trailing silent blocks   : No
Null samples used in CRC calculations       : Yes
Used interface                              : Native Win32 interface for Win NT & 2000
Gap handling                                : Appended to previous track
Used output format : Internal WAV Routines
Sample format      : 44.100 Hz; 16 Bit; Stereo
TOC of the extracted CD
     Track |   Start  |  Length  | Start sector | End sector
    ---------------------------------------------------------
        1  |  0:00.00 |  3:14.64 |         0    |    14613
        2  |  3:14.64 |  6:16.59 |     14614    |    42872
        3  |  9:31.48 |  3:46.34 |     42873    |    59856
        4  | 13:18.07 |  4:29.19 |     59857    |    80050
        5  | 17:47.26 |  6:31.39 |     80051    |   109414
        6  | 24:18.65 |  5:11.61 |    109415    |   132800
        7  | 29:30.51 |  5:54.02 |    132801    |   159352
        8  | 35:24.53 |  5:30.02 |    159353    |   184104
        9  | 40:54.55 |  5:24.48 |    184105    |   208452
       10  | 46:19.28 |  5:40.64 |    208453    |   234016
       11  | 52:00.17 |  5:25.02 |    234017    |   258393
       12  | 57:25.19 |  5:56.02 |    258394    |   285095
Track  1
     Filename D:\01. Volatile Artillery – 0D (Version).wav
     Pre-gap length  0:00:02.00
     Peak level 100.0 %
     Track quality 100.0 %
     Copy CRC 73BD448C
     Track not present in AccurateRip database
     Copy OK
Track  2
     Filename D:\02. Volatile Artillery – Lost Emotions (Version).wav
     Pre-gap length  0:00:02.00
     Peak level 100.0 %
     Track quality 99.9 %
     Copy CRC 13181E81
     Track not present in AccurateRip database
     Copy OK
Track  3
     Filename D:\03. Parkinson – Eden Hell (Inst. Version).wav
     Pre-gap length  0:00:02.00
     Peak level 100.0 %
     Track quality 99.9 %
     Copy CRC D1EA0981
     Track not present in AccurateRip database
     Copy OK
Track  4
     Filename D:\04. Parkinson – Organism Rank.wav
     Pre-gap length  0:00:02.00
     Peak level 100.0 %
     Track quality 99.9 %
     Copy CRC 54FCC59C
     Track not present in AccurateRip database
     Copy OK
Track  5
     Filename D:\05. O'dem – Spectrum.wav
     Pre-gap length  0:00:02.00
     Peak level 99.9 %
     Track quality 99.9 %
     Copy CRC BE306EE0
     Track not present in AccurateRip database
     Copy OK
Track  6
     Filename D:\06. O'dem – Pills, Drum 'n' Bass.wav
     Pre-gap length  0:00:02.00
     Peak level 99.9 %
     Track quality 99.9 %
     Copy CRC CDFB4D35
     Track not present in AccurateRip database
     Copy OK
Track  7
     Filename D:\07. Rash – The Strange Delight.wav
     Pre-gap length  0:00:02.00
     Peak level 100.0 %
     Track quality 99.9 %
     Copy CRC C95B37DE
     Track not present in AccurateRip database
     Copy OK
Track  8
     Filename D:\08. Rash – What Were They  .wav
     Pre-gap length  0:00:02.00
     Peak level 100.0 %
     Track quality 100.0 %
     Copy CRC 2B36D5E0
     Track not present in AccurateRip database
     Copy OK
Track  9
     Filename D:\09. Dead State 81 – Kosova (Version).wav
     Pre-gap length  0:00:02.00
     Peak level 100.0 %
     Track quality 100.0 %
     Copy CRC 9BBD9031
     Track not present in AccurateRip database
     Copy OK
Track 10
     Filename D:\10. Dead State 81 – Synthetic Lies (Version).wav
     Pre-gap length  0:00:02.00
     Peak level 100.0 %
     Track quality 100.0 %
     Copy CRC D711E678
     Track not present in AccurateRip database
     Copy OK
Track 11
     Filename D:\11. Glass Description – Bliss Hunt.wav
     Pre-gap length  0:00:02.00
     Peak level 100.0 %
     Track quality 99.9 %
     Copy CRC 70B3C033
     Track not present in AccurateRip database
     Copy OK
Track 12
     Filename D:\12. Glass Description – Final Bluff.wav
     Pre-gap length  0:00:02.00
     Peak level 100.0 %
     Track quality 99.8 %
     Copy CRC 684A0C87
     Track not present in AccurateRip database
     Copy OK
None of the tracks are present in the AccurateRip database
No errors occurred
End of status report
Код:
REM GENRE Industrial
REM DATE 2001
REM DISCID 9D0ED90C
REM COMMENT "ExactAudioCopy v0.99pb5"
PERFORMER "Various"
TITLE "Mindwerk Sampler 2001.04.18"
FILE "01. Volatile Artillery – 0D (Version).wav" WAVE
  TRACK 01 AUDIO
    TITLE "0D (Version)"
    PERFORMER "Volatile Artillery"
    INDEX 01 00:00:00
  TRACK 02 AUDIO
    TITLE "Lost Emotions (Version)"
    PERFORMER "Volatile Artillery"
    INDEX 00 03:12:64
FILE "02. Volatile Artillery – Lost Emotions (Version).wav" WAVE
    INDEX 01 00:00:00
  TRACK 03 AUDIO
    TITLE "Eden Hell (Inst. Version)"
    PERFORMER "Parkinson"
    INDEX 00 06:14:59
FILE "03. Parkinson – Eden Hell (Inst. Version).wav" WAVE
    INDEX 01 00:00:00
  TRACK 04 AUDIO
    TITLE "Organism Rank"
    PERFORMER "Parkinson"
    INDEX 00 03:44:34
FILE "04. Parkinson – Organism Rank.wav" WAVE
    INDEX 01 00:00:00
  TRACK 05 AUDIO
    TITLE "Spectrum"
    PERFORMER "O'dem"
    INDEX 00 04:27:19
FILE "05. O'dem – Spectrum.wav" WAVE
    INDEX 01 00:00:00
  TRACK 06 AUDIO
    TITLE "Pills, Drum 'n' Bass"
    PERFORMER "O'dem"
    INDEX 00 06:29:39
FILE "06. O'dem – Pills, Drum 'n' Bass.wav" WAVE
    INDEX 01 00:00:00
  TRACK 07 AUDIO
    TITLE "The Strange Delight"
    PERFORMER "Rash"
    INDEX 00 05:09:61
FILE "07. Rash – The Strange Delight.wav" WAVE
    INDEX 01 00:00:00
  TRACK 08 AUDIO
    TITLE "What Were They ?"
    PERFORMER "Rash"
    INDEX 00 05:52:02
FILE "08. Rash – What Were They  .wav" WAVE
    INDEX 01 00:00:00
  TRACK 09 AUDIO
    TITLE "Kosova (Version)"
    PERFORMER "Dead State 81"
    INDEX 00 05:28:02
FILE "09. Dead State 81 – Kosova (Version).wav" WAVE
    INDEX 01 00:00:00
  TRACK 10 AUDIO
    TITLE "Synthetic Lies (Version)"
    PERFORMER "Dead State 81"
    INDEX 00 05:22:48
FILE "10. Dead State 81 – Synthetic Lies (Version).wav" WAVE
    INDEX 01 00:00:00
  TRACK 11 AUDIO
    TITLE "Bliss Hunt"
    PERFORMER "Glass Description"
    INDEX 00 05:38:64
FILE "11. Glass Description – Bliss Hunt.wav" WAVE
    INDEX 01 00:00:00
  TRACK 12 AUDIO
    TITLE "Final Bluff"
    PERFORMER "Glass Description"
    INDEX 00 05:23:02
FILE "12. Glass Description – Final Bluff.wav" WAVE
    INDEX 01 00:00:00
Доп. информация: Promotional release, limited to 200 copies
2001.04.18
Правила, инструкции, FAQ!!!
Торрент  Добавлен [26 июн 2020, 16:53] Скачать торрент Магнет ссылка
Скачать торрент
[ Размер 15.82 КБ / Просмотров 5 ]

Статус
Проверен 
 
Размер  362.82 МБ
Приватный: Нет (DHT включён)
.torrent скачан  0
 


     Отправить личное сообщение
   
Страница 1 из 1
Показать сообщения за:  Поле сортировки  
Начать новую тему Ответить на тему


Сейчас этот форум просматривают: нет зарегистрированных пользователей и гости: 0


Вы не можете начинать темы
Вы не можете отвечать на сообщения
Вы не можете редактировать свои сообщения
Вы не можете удалять свои сообщения
Вы не можете добавлять вложения

Перейти:  
cron