Начать новую тему Ответить на тему
Статистика раздачи
Размер: 386.46 МБ | Добавлен: 26 июн 2020, 18:53 | Скачали: 0
Сидеров: 0  [0 байт/сек]    Личеров: 0  [0 байт/сек]
Пред. тема | След. тема 

Автор
Сообщение

СообщениеДобавлено: 26 июн 2020, 18:53 

Ответить с цитатой 

LEÆTHER STRIP - Serenade for the dead II
Жанр: Dark Electro
Страна-производитель диска: Germany
Год издания: 2013
Издатель (лейбл): Emmo.biz
Номер по каталогу: ERZ016
Аудиокодек: FLAC (*.flac)
Тип рипа: image+.cue
Битрейт аудио: lossless
Продолжительность: 56:48
Источник (релизер): Собственный CD
Наличие сканов в содержимом раздачи: да
Треклист:
1. Serenade For The Dead II 5:13
2. Minion On A Tightrope 6:49
3. Qaanaaq 5:53
4. Those Who Kill 5:44
5. Theseus Twine 6:24
6. Scablands 5:05
7. Karl Brandt's Needle 6:20
8. Spiritual Discipline 4:38
9. Eldorado - Hier Ist's Richtig 6:07
10. The Malleus 4:10
Код:
Exact Audio Copy V1.0 beta 3 from 29. August 2011
Отчёт EAC об извлечении, выполненном 15. июня 2013, 23:56
Leaether Strip / Serenade for the dead II
Дисковод: HL-DT-STDVDRAM GT10N   Adapter: 2  ID: 0
Режим чтения                 : Достоверность
Использование точного потока : Да
Отключение кэша аудио        : Да
Использование указателей C2  : Нет
Коррекция смещения при чтении                     : 102
Способность читать области Lead-in и Lead-out     : Нет
Заполнение пропущенных сэмплов тишиной            : Да
Удаление блоков с тишиной в начале и конце        : Нет
При вычислениях CRC использовались нулевые сэмплы : Да
Интерфейс                                         : Встроенный Win32-интерфейс для Win NT/2000
Выходной формат          : Пользовательский кодировщик
Выбранный битрейт        : 1024 kBit/s
Качество                 : Высокий
Добавление ID3-тега      : Нет
Утилита сжатия           : C:\Program Files\Exact Audio Copy\Flac\flac.exe
Дополнительные параметры : -V -8 %source%
TOC извлечённого CD
     Трек |   Старт  | Длительность | Начальный сектор | Конечный сектор
    ---------------------------------------------------------------------
       1  |  0:00.00 |    5:15.44   |           0      |      23668
       2  |  5:15.44 |    6:51.45   |       23669      |      54538
       3  | 12:07.14 |    5:55.50   |       54539      |      81213
       4  | 18:02.64 |    5:46.57   |       81214      |     107220
       5  | 23:49.46 |    6:26.25   |      107221      |     136195
       6  | 30:15.71 |    5:07.08   |      136196      |     159228
       7  | 35:23.04 |    6:22.32   |      159229      |     187910
       8  | 41:45.36 |    4:40.16   |      187911      |     208926
       9  | 46:25.52 |    6:09.60   |      208927      |     236661
      10  | 52:35.37 |    4:10.44   |      236662      |     255455
Характеристики диапазона извлечения и сообщения об ошибках
Выбранный диапазон
     Имя файла C:\Program Files\Exact Audio Copy\Flac\Leaether Strip - Serenade for the dead II.wav
     Пиковый уровень 100.0 %
     Скорость извлечения 1.9 X
     Качество диапазона 100.0 %
     CRC теста 95F827FD
     CRC копии 95F827FD
     Копирование... OK
Ошибок не произошло
AccurateRip: сводка
Трек  1  отсутствует в базе данных
Трек  2  отсутствует в базе данных
Трек  3  отсутствует в базе данных
Трек  4  отсутствует в базе данных
Трек  5  отсутствует в базе данных
Трек  6  отсутствует в базе данных
Трек  7  отсутствует в базе данных
Трек  8  отсутствует в базе данных
Трек  9  отсутствует в базе данных
Трек 10  отсутствует в базе данных
Ни одного трека нет в базе AccurateRip
Конец отчёта
==== Контрольная сумма отчёта D6BE3D44BF433E7095844C4443F34CFF325D08B1596DCA66498D0591FACA5763 ====
Правила, инструкции, FAQ!!!
Торрент  Добавлен [26 июн 2020, 18:53] Скачать торрент Магнет ссылка
Скачать торрент
[ Размер 16.01 КБ / Просмотров 9 ]

Статус
Проверен 
 
Размер  386.46 МБ
Приватный: Нет (DHT включён)
.torrent скачан  0
 


     Отправить личное сообщение
   
Страница 1 из 1
Показать сообщения за:  Поле сортировки  
Начать новую тему Ответить на тему


Сейчас этот форум просматривают: нет зарегистрированных пользователей и гости: 0


Вы не можете начинать темы
Вы не можете отвечать на сообщения
Вы не можете редактировать свои сообщения
Вы не можете удалять свои сообщения
Вы не можете добавлять вложения

Перейти:  
cron