Начать новую тему Ответить на тему
Статистика раздачи
Размер: 191.41 МБ | Добавлен: 26 июн 2020, 17:15 | Скачали: 0
Сидеров: 0  [0 байт/сек]    Личеров: 0  [0 байт/сек]
Пред. тема | След. тема 

Автор
Сообщение

СообщениеДобавлено: 26 июн 2020, 17:15 

Ответить с цитатой 

yelworC - Blood In Face EP
Жанр: Dark Electro, Industrial
Год выпуска диска: 1993
Производитель диска: Германия
Аудио кодек: FLAC
Тип рипа: tracks+.cue
Битрейт аудио: lossless
Продолжительность: 21:32.17
Трэклист:
01. Blood In Face (terror-mix)
02. Soulhunter
03. In Evoke
04. Combat
05. Sacred City (extended version)
Exact Audio Copy V0.99 prebeta 1 from 25. May 2007
EAC extraction logfile from 1. September 2007, 20:13
yelworC / Blood In Face E.P.
Used drive : TSSTcorpCD/DVDW TS-H652M Adapter: 0 ID: 0
Read mode : Secure
Utilize accurate stream : Yes
Defeat audio cache : No
Make use of C2 pointers : No
Read offset correction : 6
Overread into Lead-In and Lead-Out : No
Fill up missing offset samples with silence : Yes
Delete leading and trailing silent blocks : No
Used interface : Native Win32 interface for Win NT & 2000
Gap handling : Not detected, thus appended to previous track
Used output format : User Defined Encoder
Selected bitrate : 192 kBit/s
Quality : High
Add ID3 tag : Yes
Command line compressor : C:\Program Files\Exact Audio Copy\Flac\flac.exe
Additional command line options : -V -8 -T "artist=%a" -T "title=%t" -T "album=%g" -T "date=%y" -T "tracknumber=%n" -T "genre=%m" %s
Use compression offset : 0
TOC of the extracted CD
Track | Start | Length | Start sector | End sector
---------------------------------------------------------
1 | 0:00.00 | 8:17.45 | 0 | 37319
2 | 8:17.45 | 5:12.35 | 37320 | 60754
3 | 13:30.05 | 2:23.57 | 60755 | 71536
4 | 15:53.62 | 5:38.30 | 71537 | 96916
5 | 21:32.17 | 8:16.70 | 96917 | 134186
Track 1
Filename C:\Users\Brad\Desktop\New Folder (2)\01-yelworC-Blood_In_Face_(terror-mix).wav
Peak level 98.5 %
Track quality 100.0 %
Copy CRC 98CB0EDE
Track not present in AccurateRip database
Copy OK
Track 2
Filename C:\Users\Brad\Desktop\New Folder (2)\02-yelworC-Soulhunter.wav
Peak level 92.0 %
Track quality 99.9 %
Copy CRC A0F91E36
Track not present in AccurateRip database
Copy OK
Track 3
Filename C:\Users\Brad\Desktop\New Folder (2)\03-yelworC-In_Evoke.wav
Peak level 96.7 %
Track quality 99.9 %
Copy CRC 6B938264
Track not present in AccurateRip database
Copy OK
Track 4
Filename C:\Users\Brad\Desktop\New Folder (2)\04-yelworC-Combat.wav
Peak level 85.5 %
Track quality 100.0 %
Copy CRC 581D36D4
Track not present in AccurateRip database
Copy OK
Track 5
Filename C:\Users\Brad\Desktop\New Folder (2)\05-yelworC-Sacred_City_(extended_version).wav
Peak level 98.4 %
Track quality 100.0 %
Copy CRC D91A9883
Track not present in AccurateRip database
Copy OK
No errors occurred
End of status report
AUDIOCHECKER v2.0 beta (build 457) - by Dester - opdester@freemail.hu
~~~~~~~~~~~~~~~~~~~~~~~~~~~~~~~~~~
-=== DO NOT EDIT THIS FILE! ===-
Path: ...\yelworC - Blood In Face E.P
01 -=- 01-yelworC-Blood_In_Face_(terror-mix).flac -=- CDDA (100%)
02 -=- 02-yelworC-Soulhunter.flac -=- CDDA (100%)
03 -=- 03-yelworC-In_Evoke.flac -=- CDDA (100%)
04 -=- 04-yelworC-Combat.flac -=- CDDA (100%)
05 -=- 05-yelworC-Sacred_City_(extended_version).flac -=- CDDA (100%)
Summary 100,00% CDDA
55363796
Доп. информация: Группа yelworC была образована в 1987 году Питером Девином (Peter Devin) и Оливером Бюттнером (Oliver Buetner) aka Dominik Van Reich. Первый альбом "Brainstorming" был выпущен в 1993 году на ныне не действующем лейбле Celtic Circle Productions(C.C.P.). Распавшись в 1994, проект снова обрел жизнь в 2004.
Источник http://goths.ru
Данный релиз, был успешно подготовлен, благодаря maxmin, за что ему огромное спасибо!
Правила, инструкции, FAQ!!!
Торрент  Добавлен [26 июн 2020, 17:15] Скачать торрент Магнет ссылка
Скачать торрент
[ Размер 4.67 КБ / Просмотров 7 ]

Статус
Проверен 
 
Размер  191.41 МБ
Приватный: Нет (DHT включён)
.torrent скачан  0
 


     Отправить личное сообщение
   
Страница 1 из 1
Показать сообщения за:  Поле сортировки  
Начать новую тему Ответить на тему


Сейчас этот форум просматривают: нет зарегистрированных пользователей и гости: 0


Вы не можете начинать темы
Вы не можете отвечать на сообщения
Вы не можете редактировать свои сообщения
Вы не можете удалять свои сообщения
Вы не можете добавлять вложения

Перейти:  
cron