Начать новую тему Ответить на тему
Статистика раздачи
Размер: 575.38 МБ | Добавлен: 26 июн 2020, 17:55 | Скачали: 0
Сидеров: 0  [0 байт/сек]    Личеров: 0  [0 байт/сек]
Пред. тема | След. тема 

Автор
Сообщение

СообщениеДобавлено: 26 июн 2020, 17:55 

Ответить с цитатой 

Embryoid / Dead Cells [#AD-HUN-72-CD]
Жанр: Dark Electro, Industrial
Страна-производитель диска: Hungary
Год издания: 2013
Издатель (лейбл): Advoxya Records
Номер по каталогу: AD-HUN-72-CD
Аудиокодек: FLAC (*.flac)
Тип рипа: image+.cue
Битрейт аудио: lossless
Источник (релизер): собственный рип с фирменного CD
Наличие сканов в содержимом раздачи: нет
Треклист:
1 - Darklight
2 - Dead Cells
3 - Death Is Mine
4 - Desillusion
5 - Harshlife
6 - I Hate U
7 - No Leadership
8 - Pleasure Of Pain
9 - Soul Sucker
10 - Sate Of Mind
11 - Stupid Game
12 - Wonderland
14 - Harshlife (high Level Static Remix)
14 - I Hate U (touched By Stahlnebel & Blackselket)
15 - Harshlife (dolls Of Pain Club Mix)
16 - No Leadership (remix By And Feat. Larva)
Код:
Exact Audio Copy V1.0 beta 3 from 29. August 2011
EAC extraction logfile from 21. July 2013, 14:43
Embryoid / Dead Cells
Used drive  : Optiarc DVD RW AD-5200S   Adapter: 1  ID: 0
Read mode               : Secure
Utilize accurate stream : Yes
Defeat audio cache      : Yes
Make use of C2 pointers : No
Read offset correction                      : 48
Overread into Lead-In and Lead-Out          : No
Fill up missing offset samples with silence : Yes
Delete leading and trailing silent blocks   : No
Null samples used in CRC calculations       : Yes
Used interface                              : Native Win32 interface for Win NT & 2000
Used output format              : User Defined Encoder
Selected bitrate                : 128 kBit/s
Quality                         : High
Add ID3 tag                     : Yes
Command line compressor         : C:\Program Files\FLAC\flac.exe
Additional command line options : -V -8 -T "Date=%year%" -T "Genre=%genre%" %source%
TOC of the extracted CD
     Track |   Start  |  Length  | Start sector | End sector
    ---------------------------------------------------------
        1  |  0:00.00 |  4:16.58 |         0    |    19257
        2  |  4:16.58 |  4:46.24 |     19258    |    40731
        3  |  9:03.07 |  5:08.35 |     40732    |    63866
        4  | 14:11.42 |  5:19.41 |     63867    |    87832
        5  | 19:31.08 |  4:20.64 |     87833    |   107396
        6  | 23:51.72 |  4:32.65 |    107397    |   127861
        7  | 28:24.62 |  5:19.49 |    127862    |   151835
        8  | 33:44.36 |  4:35.18 |    151836    |   172478
        9  | 38:19.54 |  4:07.11 |    172479    |   191014
       10  | 42:26.65 |  4:16.58 |    191015    |   210272
       11  | 46:43.48 |  4:40.58 |    210273    |   231330
       12  | 51:24.31 |  4:27.64 |    231331    |   251419
       13  | 55:52.20 |  5:16.40 |    251420    |   275159
       14  | 61:08.60 |  4:26.01 |    275160    |   295110
       15  | 65:34.61 |  6:14.14 |    295111    |   323174
       16  | 71:49.00 |  3:58.12 |    323175    |   341036
Range status and errors
Selected range
     Filename G:\Rips\Embryoid\Embryoid - Dead Cells.wav
     Peak level 99.9 %
     Extraction speed 4.5 X
     Range quality 100.0 %
     Test CRC 37FA20B2
     Copy CRC 37FA20B2
     Copy OK
No errors occurred
AccurateRip summary
Track  1  not present in database
Track  2  not present in database
Track  3  not present in database
Track  4  not present in database
Track  5  not present in database
Track  6  not present in database
Track  7  not present in database
Track  8  not present in database
Track  9  not present in database
Track 10  not present in database
Track 11  not present in database
Track 12  not present in database
Track 13  not present in database
Track 14  not present in database
Track 15  not present in database
Track 16  not present in database
None of the tracks are present in the AccurateRip database
End of status report
==== Log checksum 7CDE360E4A189C306FE8407116FDDC58E58AC891FF3BBDB30A4400146AFCAC6C ====
Код:
REM DATE 2013
REM DISCID D411C310
REM COMMENT "ExactAudioCopy v1.0b3"
PERFORMER "Embryoid"
TITLE "Dead Cells"
FILE "Embryoid - Dead Cells.flac" WAVE
  TRACK 01 AUDIO
    TITLE "Darklight"
    PERFORMER "Embryoid"
    INDEX 01 00:00:00
  TRACK 02 AUDIO
    TITLE "Dead Cells"
    PERFORMER "Embryoid"
    INDEX 01 04:16:58
  TRACK 03 AUDIO
    TITLE "Death is Mine"
    PERFORMER "Embryoid"
    INDEX 01 09:03:07
  TRACK 04 AUDIO
    TITLE "Desillusion"
    PERFORMER "Embryoid"
    INDEX 01 14:11:42
  TRACK 05 AUDIO
    TITLE "Harshlife"
    PERFORMER "Embryoid"
    INDEX 01 19:31:08
  TRACK 06 AUDIO
    TITLE "I hate U"
    PERFORMER "Embryoid"
    INDEX 01 23:51:72
  TRACK 07 AUDIO
    TITLE "No Leadership"
    PERFORMER "Embryoid"
    INDEX 01 28:24:62
  TRACK 08 AUDIO
    TITLE "Pleasure of Pain"
    PERFORMER "Embryoid"
    INDEX 01 33:44:36
  TRACK 09 AUDIO
    TITLE "Soul Sucker"
    PERFORMER "Embryoid"
    INDEX 01 38:19:54
  TRACK 10 AUDIO
    TITLE "Sate of Mind"
    PERFORMER "Embryoid"
    INDEX 01 42:26:65
  TRACK 11 AUDIO
    TITLE "Stupid Game"
    PERFORMER "Embryoid"
    INDEX 01 46:43:48
  TRACK 12 AUDIO
    TITLE "Wonderland"
    PERFORMER "Embryoid"
    INDEX 01 51:24:31
  TRACK 13 AUDIO
    TITLE "Harshlife (High Level Static remix)"
    PERFORMER "Embryoid"
    INDEX 01 55:52:20
  TRACK 14 AUDIO
    TITLE "I hate U (touched by Stahlnebel & Black Selket)"
    PERFORMER "Embryoid"
    INDEX 01 61:08:60
  TRACK 15 AUDIO
    TITLE "Harshlife (Dolls of Pain club mix)"
    PERFORMER "Embryoid"
    INDEX 01 65:34:61
  TRACK 16 AUDIO
    TITLE "No Leadership (remix by and feat. Larva)"
    PERFORMER "Embryoid"
    INDEX 01 71:49:00

Правила, инструкции, FAQ!!!
Торрент  Добавлен [26 июн 2020, 17:55] Скачать торрент Магнет ссылка
Скачать торрент
[ Размер 11.94 КБ / Просмотров 6 ]

Статус
Проверен 
 
Размер  575.38 МБ
Приватный: Нет (DHT включён)
.torrent скачан  0
 


     Отправить личное сообщение
   
Страница 1 из 1
Показать сообщения за:  Поле сортировки  
Начать новую тему Ответить на тему


Сейчас этот форум просматривают: нет зарегистрированных пользователей и гости: 0


Вы не можете начинать темы
Вы не можете отвечать на сообщения
Вы не можете редактировать свои сообщения
Вы не можете удалять свои сообщения
Вы не можете добавлять вложения

Перейти:  
cron