Начать новую тему Ответить на тему
Статистика раздачи
Размер: 663.39 МБ | Добавлен: 26 июн 2020, 17:10 | Скачали: 0
Сидеров: 0  [0 байт/сек]    Личеров: 0  [0 байт/сек]
Пред. тема | След. тема 

Автор
Сообщение

СообщениеДобавлено: 26 июн 2020, 17:10 

Ответить с цитатой 

BlakOPz - As Nations Decay (LE)


Жанр: Dark Electro | Industrial | EBM
Носитель: CD
Год издания: 2013
Издатель (лейбл): DeathWatch Asia
Номер по каталогу: DWA 289
Страна исполнителя (группы): USA
Аудиокодек: FLAC (*.flac)
Тип рипа: image+.cue
Битрейт аудио: lossless
Продолжительность: 01:12:51
Источник (релизер): kergarn
Наличие сканов : да
Треклист:
01. As Nations Decay [00:05:51]
02. The Beginning [00:05:22]
03. Long Live The New Flesh [00:05:13]
04. Business As Usual [00:04:23]
05. Behind The Curtain [00:05:11]
06. The Struggle (vs. Sleetgrout) [00:04:53]
07. #Culturedelete [00:04:28]
08. Before The Rust [00:04:47]
09. Thick As Thieves [00:04:17]
10. Debris Machine (vs. Nitro/Noise) [00:04:03]
11. Turn Key Tyranny [00:04:43]
12. Detonation [00:04:58]
13. Before The Rust (Cryogenic Echelon remix) [bonus track] [00:04:52]
14. As Nations Decay (Aesthetic Perfection remix) [bonus track] [00:05:04]
15. Thick As Thieves (Alter Der Ruine remix) [bonus track] [00:04:31]


Код:
Exact Audio Copy V1.0 beta 3 from 29. August 2011
Отчёт EAC об извлечении, выполненном 18. апреля 2014, 9:18
BlakOPz / As Nations Decay
Дисковод: PIONEER DVD-RW  DVR-XD10   Adapter: 7  ID: 0
Режим чтения                 : Достоверность
Использование точного потока : Да
Отключение кэша аудио        : Да
Использование указателей C2  : Нет
Коррекция смещения при чтении                     : 96
Способность читать области Lead-in и Lead-out     : Нет
Заполнение пропущенных сэмплов тишиной            : Да
Удаление блоков с тишиной в начале и конце        : Нет
При вычислениях CRC использовались нулевые сэмплы : Да
Интерфейс                                         : Встроенный Win32-интерфейс для Win NT/2000
Выходной формат          : Пользовательский кодировщик
Выбранный битрейт        : 1024 kBit/s
Качество                 : Высокий
Добавление ID3-тега      : Нет
Утилита сжатия           : C:\Program Files\Exact Audio Copy\Flac\flac.exe
Дополнительные параметры : -6 -V -T "Date=%year%" -T "Genre=%genre%" %source%
TOC извлечённого CD
     Трек |   Старт  | Длительность | Начальный сектор | Конечный сектор
    ---------------------------------------------------------------------
       1  |  0:00.00 |    5:52.02   |           0      |      26401
       2  |  5:52.02 |    5:22.30   |       26402      |      50581
       3  | 11:14.32 |    5:14.11   |       50582      |      74142
       4  | 16:28.43 |    4:23.14   |       74143      |      93881
       5  | 20:51.57 |    5:13.29   |       93882      |     117385
       6  | 26:05.11 |    4:54.11   |      117386      |     139446
       7  | 30:59.22 |    4:29.18   |      139447      |     159639
       8  | 35:28.40 |    4:49.59   |      159640      |     181373
       9  | 40:18.24 |    4:17.74   |      181374      |     200722
      10  | 44:36.23 |    4:03.22   |      200723      |     218969
      11  | 48:39.45 |    4:43.43   |      218970      |     240237
      12  | 53:23.13 |    4:58.23   |      240238      |     262610
      13  | 58:21.36 |    4:52.54   |      262611      |     284564
      14  | 63:14.15 |    5:04.65   |      284565      |     307429
      15  | 68:19.05 |    4:32.37   |      307430      |     327866
Характеристики диапазона извлечения и сообщения об ошибках
Выбранный диапазон
     Имя файла C:\BlakOPz - As Nations Decay.wav
     Пиковый уровень 97.1 %
     Скорость извлечения 2.6 X
     Качество диапазона 99.9 %
     CRC теста A086ACDD
     CRC копии A086ACDD
     Копирование... OK
Ошибок не произошло
AccurateRip: сводка
Трек  1  отсутствует в базе данных
Трек  2  отсутствует в базе данных
Трек  3  отсутствует в базе данных
Трек  4  отсутствует в базе данных
Трек  5  отсутствует в базе данных
Трек  6  отсутствует в базе данных
Трек  7  отсутствует в базе данных
Трек  8  отсутствует в базе данных
Трек  9  отсутствует в базе данных
Трек 10  отсутствует в базе данных
Трек 11  отсутствует в базе данных
Трек 12  отсутствует в базе данных
Трек 13  отсутствует в базе данных
Трек 14  отсутствует в базе данных
Трек 15  отсутствует в базе данных
Ни одного трека нет в базе AccurateRip
Конец отчёта
---- CUETools DB Plugin V2.1.4
[CTDB TOCID: MopeRQTTTSlpFLMXaHHjO56FPr4-] disk not present in database
Submit result: MopeRQTTTSlpFLMXaHHjO56FPr4- has been uploaded
==== Контрольная сумма отчёта B3F7BAB0BB12DD4101B0423D5FDAED1131458DD7669F870A951AF242EC84A84E ====
Код:
REM GENRE "dark electro / industrial"
REM DATE 2013
REM DISCID C811130F
REM COMMENT "ExactAudioCopy v1.0b3"
PERFORMER "BlakOPz"
TITLE "As Nations Decay"
FILE "BlakOPz - As Nations Decay.flac" WAVE
  TRACK 01 AUDIO
    TITLE "As Nations Decay"
    PERFORMER "BlakOPz"
    INDEX 01 00:00:00
  TRACK 02 AUDIO
    TITLE "The Beginning"
    PERFORMER "BlakOPz"
    INDEX 00 05:51:63
    INDEX 01 05:52:02
  TRACK 03 AUDIO
    TITLE "Long Live The New Flesh"
    PERFORMER "BlakOPz"
    INDEX 00 11:14:09
    INDEX 01 11:14:32
  TRACK 04 AUDIO
    TITLE "Business As Usual"
    PERFORMER "BlakOPz"
    INDEX 00 16:28:26
    INDEX 01 16:28:43
  TRACK 05 AUDIO
    TITLE "Behind The Curtain "
    PERFORMER "BlakOPz"
    INDEX 00 20:51:44
    INDEX 01 20:51:57
  TRACK 06 AUDIO
    TITLE "The Struggle (vs. Sleetgrout)"
    PERFORMER "BlakOPz"
    INDEX 00 26:03:12
    INDEX 01 26:05:11
  TRACK 07 AUDIO
    TITLE "#Culturedelete"
    PERFORMER "BlakOPz"
    INDEX 00 30:59:01
    INDEX 01 30:59:22
  TRACK 08 AUDIO
    TITLE "Before The Rust"
    PERFORMER "BlakOPz"
    INDEX 00 35:28:17
    INDEX 01 35:28:40
  TRACK 09 AUDIO
    TITLE "Thick As Thieves"
    PERFORMER "BlakOPz"
    INDEX 00 40:16:25
    INDEX 01 40:18:24
  TRACK 10 AUDIO
    TITLE "Debris Machine (vs. Nitro/Noise)"
    PERFORMER "BlakOPz"
    INDEX 00 44:36:01
    INDEX 01 44:36:23
  TRACK 11 AUDIO
    TITLE "Turn Key Tyranny"
    PERFORMER "BlakOPz"
    INDEX 00 48:39:33
    INDEX 01 48:39:45
  TRACK 12 AUDIO
    TITLE "Detonation"
    PERFORMER "BlakOPz"
    INDEX 00 53:22:54
    INDEX 01 53:23:13
  TRACK 13 AUDIO
    TITLE "Before The Rust (Cryogenic Echelon remix) [bonus track]"
    PERFORMER "BlakOPz"
    INDEX 01 58:21:36
  TRACK 14 AUDIO
    TITLE "As Nations Decay (Aesthetic Perfection remix) [bonus track]"
    PERFORMER "BlakOPz"
    INDEX 00 63:13:70
    INDEX 01 63:14:15
  TRACK 15 AUDIO
    TITLE "Thick As Thieves (Alter Der Ruine remix) [bonus track]"
    PERFORMER "BlakOPz"
    INDEX 00 68:18:42
    INDEX 01 68:19:05
Код:
-----------------------
DON'T MODIFY THIS FILE
-----------------------
PERFORMER: auCDtect Task Manager, ver. 1.5.1RC6 build 1.5.1.7
Copyright (c) 2008-2010 y-soft. All rights reserved
[url=http://y-soft.org]http://y-soft.org[/url]
ANALYZER: auCDtect: CD records authenticity detector, version 0.8.2
Copyright (c) 2004 Oleg Berngardt. All rights reserved.
Copyright (c) 2004 Alexander Djourik. All rights reserved.
FILE: BlakOPz - As Nations Decay.flac
  Size: 601951321 Hash: 99117BB6E05DFF7607C48B29333D0308 Accuracy: -m0
  Conclusion: CDDA 100%
  Signature: 62F0D6A15D445A3C1EB2036F0B2C26DD26C46C8B
Правила, инструкции, FAQ!!!
Торрент  Добавлен [26 июн 2020, 17:10] Скачать торрент Магнет ссылка
Скачать торрент
[ Размер 14.1 КБ / Просмотров 5 ]

Статус
Проверен 
 
Размер  663.39 МБ
Приватный: Нет (DHT включён)
.torrent скачан  0
 


     Отправить личное сообщение
   
Страница 1 из 1
Показать сообщения за:  Поле сортировки  
Начать новую тему Ответить на тему


Сейчас этот форум просматривают: нет зарегистрированных пользователей и гости: 0


Вы не можете начинать темы
Вы не можете отвечать на сообщения
Вы не можете редактировать свои сообщения
Вы не можете удалять свои сообщения
Вы не можете добавлять вложения

Перейти:  
cron