Начать новую тему Ответить на тему
Статистика раздачи
Размер: 473.03 МБ | Добавлен: 26 июн 2020, 17:12 | Скачали: 0
Сидеров: 0  [0 байт/сек]    Личеров: 0  [0 байт/сек]
Пред. тема | След. тема 

Автор
Сообщение

СообщениеДобавлено: 26 июн 2020, 17:12 

Ответить с цитатой 

Blind Effects / Heartland Sound Formation
Жанр: dark electro / industrial
Страна-производитель диска: Germany
Год издания диска: 2010
Издатель (лейбл): Danse Macabre
Аудиокодек: FLAC (*.flac)
Тип рипа: image+.cue
Битрейт аудио: lossless
Продолжительность: 58:38.00
Источник (релизер): Физический носитель
Наличие сканов в содержимом раздачи: да
Треклист:
01. Weapons In Paradise [3:55]
02. Divide [3:59]
03. Assholes Like Me [4:34]
04. Bitch [4:00]
05. Painkiller [4:24]
06. (I Am) Your Violence [3:37]
07. (Only One) Possibility? [3:23]
08. Salty Rain [3:55]
09. Time (2010 Version mit Ini W.) [4:18]
10. EinSchlag [3:16]
11. Painkiller (Profane Finality rmx) [4:00]
12. Assholes Like You (A.Friend rmx feat. Ini W.) [4:16]
13. Divide (inXsense remix) [4:15]
14. Bitch (Neustrohm remix) [3:15]
15. (Only One) Possibility? (Lo-Fi rmx by Xotox) [3:33]
Код:
Exact Audio Copy V0.99 prebeta 5 from 4. May 2009
Отчёт EAC об извлечении, выполненном 25. мая 2011, 12:23
Blind Effects / Heartland Sound Formation
Дисковод: Optiarc DVD RW AD-7173A   Adapter: 0  ID: 0
Режим чтения                 : Достоверность
Использование точного потока : Да
Отключение кэша аудио        : Да
Использование указателей C2  : Нет
Коррекция смещения при чтении                     : 48
Способность читать области Lead-in и Lead-out     : Нет
Заполнение пропущенных сэмплов тишиной            : Да
Удаление блоков с тишиной в начале и конце        : Нет
При вычислениях CRC использовались нулевые сэмплы : Да
Интерфейс                                         : Установленный внешний ASPI-интерфейс
Выходной формат          : Пользовательский кодировщик
Выбранный битрейт        : 1024 kBit/s
Качество                 : Высокий
Добавление ID3-тэга      : Нет
Утилита сжатия           : C:\Program Files\Exact Audio Copy\flac.exe
Дополнительные параметры : -6 -V -T "ARTIST=%a" -T "TITLE=%t" -T "ALBUM=%g" -T "DATE=%y" -T "TRACKNUMBER=%n" -T "GENRE=%m" -T "COMMENT=%e" %s -o %d
TOC извлечённого CD
     Трек |   Старт  | Длительность | Начальный сектор | Конечный сектор
    ---------------------------------------------------------------------
       1  |  0:00.00 |    3:54.64   |           0      |      17613
       2  |  3:54.64 |    3:59.00   |       17614      |      35538
       3  |  7:53.64 |    4:34.12   |       35539      |      56100
       4  | 12:28.01 |    3:59.61   |       56101      |      74086
       5  | 16:27.62 |    4:23.61   |       74087      |      93872
       6  | 20:51.48 |    3:36.72   |       93873      |     110144
       7  | 24:28.45 |    3:22.74   |      110145      |     125368
       8  | 27:51.44 |    3:54.53   |      125369      |     142971
       9  | 31:46.22 |    4:17.68   |      142972      |     162314
      10  | 36:04.15 |    3:15.63   |      162315      |     177002
      11  | 39:20.03 |    3:59.44   |      177003      |     194971
      12  | 43:19.47 |    4:16.05   |      194972      |     214176
      13  | 47:35.52 |    4:14.62   |      214177      |     233288
      14  | 51:50.39 |    3:14.54   |      233289      |     247892
      15  | 55:05.18 |    3:32.57   |      247893      |     263849
Характеристики диапазона извлечения и сообщения об ошибках
Выбранный диапазон
     Имя файла D:\Музыка\Blind Effects - Heartland Sound Formation.wav
     Пиковый уровень 97.9 %
     Качество диапазона 100.0 %
     CRC теста AEA3D487
     CRC копии AEA3D487
     Копирование... OK
Ошибок не произошло
AccurateRip: сводка
Трек  1  нет в базе данных
Трек  2  нет в базе данных
Трек  3  нет в базе данных
Трек  4  нет в базе данных
Трек  5  нет в базе данных
Трек  6  нет в базе данных
Трек  7  нет в базе данных
Трек  8  нет в базе данных
Трек  9  нет в базе данных
Трек 10  нет в базе данных
Трек 11  нет в базе данных
Трек 12  нет в базе данных
Трек 13  нет в базе данных
Трек 14  нет в базе данных
Трек 15  нет в базе данных
Ни одного трека нет в базе AccurateRip
Конец отчёта
Правила, инструкции, FAQ!!!
Торрент  Добавлен [26 июн 2020, 17:12] Скачать торрент Магнет ссылка
Скачать торрент
[ Размер 19.63 КБ / Просмотров 3 ]

Статус
Проверен 
 
Размер  473.03 МБ
Приватный: Нет (DHT включён)
.torrent скачан  0
 


     Отправить личное сообщение
   
Страница 1 из 1
Показать сообщения за:  Поле сортировки  
Начать новую тему Ответить на тему


Сейчас этот форум просматривают: нет зарегистрированных пользователей и гости: 0


Вы не можете начинать темы
Вы не можете отвечать на сообщения
Вы не можете редактировать свои сообщения
Вы не можете удалять свои сообщения
Вы не можете добавлять вложения

Перейти:  
cron