Начать новую тему Ответить на тему
Статистика раздачи
Размер: 474.4 МБ | Добавлен: 26 июн 2020, 20:40 | Скачали: 0
Сидеров: 0  [0 байт/сек]    Личеров: 0  [0 байт/сек]
Пред. тема | След. тема 

Автор
Сообщение

СообщениеДобавлено: 26 июн 2020, 20:40 

Ответить с цитатой 

A7IE / Distress [Rupal Records / La Chambre Froide RR008]
Жанр: DarkElectro, HarshEBM
Страна-производитель диска: Germany
Год издания: 2007
Издатель (лейбл): RupalRecords
Номер по каталогу: RR008
Страна: France
Аудиокодек: FLAC (*.flac)
Тип рипа: image+.cue
Битрейт аудио: lossless
Источник (релизер): собственный рип с фирменного CD
Наличие сканов в содержимом раздачи: нет
Треклист:
01.Prelude
02.The Cage
03.Messiah
04.Taste Of Sorrow
05.Renascence
06.Le Lapin Blanc
07.Sick Of You All
11.Messiah [Remix by Wynardtage]
12.The Cage [X-Mix by X-Fusion]
13.Messiah [Remix by Tamtrum]
14.Pray [Hatelectromix by FSJC]
[8-10]-tracks are hidden, silence
Код:
Exact Audio Copy V1.0 beta 3 from 29. August 2011
EAC extraction logfile from 7. March 2013, 13:09
A7IE / Distress
Used drive  : Optiarc DVD RW AD-5200S   Adapter: 1  ID: 0
Read mode               : Secure
Utilize accurate stream : Yes
Defeat audio cache      : Yes
Make use of C2 pointers : No
Read offset correction                      : 48
Overread into Lead-In and Lead-Out          : No
Fill up missing offset samples with silence : Yes
Delete leading and trailing silent blocks   : No
Null samples used in CRC calculations       : Yes
Used interface                              : Native Win32 interface for Win NT & 2000
Used output format              : User Defined Encoder
Selected bitrate                : 128 kBit/s
Quality                         : High
Add ID3 tag                     : No
Command line compressor         : C:\Program Files\FLAC\flac.exe
Additional command line options : -V -8 -T "Date=%year%" -T "Genre=%genre%" %source%
TOC of the extracted CD
     Track |   Start  |  Length  | Start sector | End sector
    ---------------------------------------------------------
        1  |  0:00.00 |  3:41.17 |         0    |    16591
        2  |  3:41.17 |  5:12.09 |     16592    |    40000
        3  |  8:53.26 |  4:41.28 |     40001    |    61103
        4  | 13:34.54 |  4:59.10 |     61104    |    83538
        5  | 18:33.64 |  6:16.03 |     83539    |   111741
        6  | 24:49.67 |  7:26.71 |    111742    |   145262
        7  | 32:16.63 |  6:46.17 |    145263    |   175729
        8  | 39:03.05 |  0:06.08 |    175730    |   176187
        9  | 39:09.13 |  0:06.08 |    176188    |   176645
       10  | 39:15.21 |  0:06.08 |    176646    |   177103
       11  | 39:21.29 |  4:52.71 |    177104    |   199074
       12  | 44:14.25 |  5:57.44 |    199075    |   225893
       13  | 50:11.69 |  3:30.74 |    225894    |   241717
       14  | 53:42.68 |  5:05.07 |    241718    |   264599
Range status and errors
Selected range
     Filename G:\Rips\A7IE - Distress.wav
     Peak level 98.8 %
     Extraction speed 4.0 X
     Range quality 100.0 %
     Test CRC 0F29EB97
     Copy CRC 0F29EB97
     Copy OK
No errors occurred
AccurateRip summary
Track  1  accurately ripped (confidence 1)  [24CA2694]  (AR v1)
Track  2  accurately ripped (confidence 1)  [47AAF228]  (AR v1)
Track  3  accurately ripped (confidence 1)  [D9BEF827]  (AR v1)
Track  4  accurately ripped (confidence 1)  [E958B6DD]  (AR v1)
Track  5  accurately ripped (confidence 1)  [80C24F70]  (AR v1)
Track  6  accurately ripped (confidence 1)  [4AE0A14C]  (AR v1)
Track  7  accurately ripped (confidence 1)  [F3C9B225]  (AR v1)
Track  8  not present in database
Track  9  not present in database
Track 10  not present in database
Track 11  accurately ripped (confidence 1)  [CD79C706]  (AR v1)
Track 12  accurately ripped (confidence 1)  [1B353ADC]  (AR v1)
Track 13  accurately ripped (confidence 1)  [14CB3C89]  (AR v1)
Track 14  accurately ripped (confidence 1)  [B730BD6A]  (AR v1)
11 трек(и) скопированы точно
 3 трек(и) не содержатся в базе AccurateRip
Some tracks could not be verified as accurate
End of status report
==== Log checksum B590FFBDFB254E0A0830D501AF54B9198931DDE1186B516654DDC0E692459BF4 ====
Код:
REM GENRE DarkElectro
REM DATE 2007
REM DISCID AE0DC80E
REM COMMENT "ExactAudioCopy v1.0b3"
PERFORMER "A7IE"
TITLE "Distress"
FILE "A7IE - Distress.flac" WAVE
  TRACK 01 AUDIO
    TITLE "Prelude"
    PERFORMER "A7IE"
    INDEX 01 00:00:00
  TRACK 02 AUDIO
    TITLE "The Cage"
    PERFORMER "A7IE"
    INDEX 01 03:41:17
  TRACK 03 AUDIO
    TITLE "Messiah"
    PERFORMER "A7IE"
    INDEX 01 08:53:26
  TRACK 04 AUDIO
    TITLE "Taste Of Sorrow"
    PERFORMER "A7IE"
    INDEX 01 13:34:54
  TRACK 05 AUDIO
    TITLE "Renascence"
    PERFORMER "A7IE"
    INDEX 01 18:33:64
  TRACK 06 AUDIO
    TITLE "The Lapin Blanc"
    PERFORMER "A7IE"
    INDEX 01 24:49:67
  TRACK 07 AUDIO
    TITLE "Sick Of You All"
    PERFORMER "A7IE"
    INDEX 01 32:16:63
  TRACK 08 AUDIO
    TITLE "Hidden track[silence]"
    PERFORMER "A7IE"
    INDEX 01 39:03:05
  TRACK 09 AUDIO
    TITLE "Hidden track[silence]"
    PERFORMER "A7IE"
    INDEX 01 39:09:13
  TRACK 10 AUDIO
    TITLE "Hidden track[silence]"
    PERFORMER "A7IE"
    INDEX 01 39:15:21
  TRACK 11 AUDIO
    TITLE "Messiah [Remix by WYNARDTAGE]"
    PERFORMER "A7IE"
    INDEX 01 39:21:29
  TRACK 12 AUDIO
    TITLE "The Cage [ X-mix by X-FUSION]"
    PERFORMER "A7IE"
    INDEX 01 44:14:25
  TRACK 13 AUDIO
    TITLE "Messiah [Remix by TAMTRUM]"
    PERFORMER "A7IE"
    INDEX 01 50:11:69
  TRACK 14 AUDIO
    TITLE "Pray [Hatelectromix by FSJC/SUICIDE SOLUTION]"
    PERFORMER "A7IE"
    INDEX 01 53:42:68

Правила, инструкции, FAQ!!!
Торрент  Добавлен [26 июн 2020, 20:40] Скачать торрент Магнет ссылка
Скачать торрент
[ Размер 19.22 КБ / Просмотров 7 ]

Статус
Проверен 
 
Размер  474.4 МБ
Приватный: Нет (DHT включён)
.torrent скачан  0
 


     Отправить личное сообщение
   
Страница 1 из 1
Показать сообщения за:  Поле сортировки  
Начать новую тему Ответить на тему


Сейчас этот форум просматривают: нет зарегистрированных пользователей и гости: 0


Вы не можете начинать темы
Вы не можете отвечать на сообщения
Вы не можете редактировать свои сообщения
Вы не можете удалять свои сообщения
Вы не можете добавлять вложения

Перейти:  
cron