Начать новую тему Ответить на тему
Статистика раздачи
Размер: 457.91 МБ | Добавлен: 26 июн 2020, 17:33 | Скачали: 0
Сидеров: 0  [0 байт/сек]    Личеров: 0  [0 байт/сек]
Пред. тема | След. тема 

Автор
Сообщение

СообщениеДобавлено: 26 июн 2020, 17:33 

Ответить с цитатой 

God Module - Perception EP
Жанр: Dark Electro
Год выпуска диска: 2002
Производитель диска: США
Аудио кодек: FLAC
Тип рипа: image+.cue
Битрейт аудио: lossless
Продолжительность: 54:26.55
Трэклист:
01. Perception
02. Perception (Force Field mix by Infekktion)
03. Perception (Culture Kültur Mix)
04. Perception (Dismantled Mix)
05. Transcend
06. Transcend (Liquid Club Mix by Parallel)
07. Transcend (Cut.Rate.Box Mix)
08. Interference
09. Interference (Floor Filler Mix by L'ame Immortelle)
10. Interference (Constructor Method Mix by Stromkern)
11. Interference (Collapsed Mix by Grendel)
Доп. информация: God Module - dark electro-проект из Флориды (США), ведомый человеком по имени Jasyn Bangert. Вдохновляемый как стилями электронной, так и традиционной музыки, в своем творчестве он комбинирует EBM, Techno, Darkwave, Goth и Synthpop.
Exact Audio Copy V0.99 prebeta 1 from 25. May 2007
Отчёт EAC об извлечении, выполненном 6. июля 2008, 18:44
God Module / Perception
Дисковод: PIONEER DVD-RW DVR-111D Adapter: 0 ID: 0
Режим чтения : Достоверность
Использование точного потока : Да
Отключение кэша аудио : Да
Использование указателей C2 : Нет
Коррекция смещения при чтении : 48
Способность читать области Lead-in и Lead-out : Нет
Заполнение пропущенных сэмплов тишиной : Да
Удаление блоков с тишиной в начале и конце : Нет
Интерфейс : Встроенный Win32-интерфейс для Win NT/2000
Выходной формат : Пользовательский кодировщик
Выбранный битрейт : 1024 kBit/s
Качество : Высокий
Добавление ID3-тэга : Да
Утилита сжатия : C:\Program Files\Exact Audio Copy\FLAC\FLAC.EXE
Дополнительные параметры : -6 -V -T "ARTIST=%a" -T "TITLE=%t" -T "ALBUM=%g" -T "DATE=%y" -T "TRACKNUMBER=%n" -T "GENRE=%m" -T "COMMENT=%e" %s -o %d
TOC извлечённого CD
Трек | Старт | Длительность | Начальный сектор | Конечный сектор
---------------------------------------------------------------------
1 | 0:00.00 | 4:58.53 | 0 | 22402
2 | 4:58.53 | 6:36.69 | 22403 | 52171
3 | 11:35.47 | 4:16.02 | 52172 | 71373
4 | 15:51.49 | 5:52.07 | 71374 | 97780
5 | 21:43.56 | 5:08.65 | 97781 | 120945
6 | 26:52.46 | 8:31.61 | 120946 | 159331
7 | 35:24.32 | 5:03.40 | 159332 | 182096
8 | 40:27.72 | 5:08.72 | 182097 | 205268
9 | 45:36.69 | 3:58.53 | 205269 | 223171
10 | 49:35.47 | 4:51.08 | 223172 | 245004
11 | 54:26.55 | 5:36.40 | 245005 | 270244
Характеристики диапазона извлечения и сообщения об ошибках
Выбранный диапазон
Имя файла D:\123\NEW UNREALESED\God Module - Perception [2002]\God Module - Perception.wav
Пиковый уровень 100.0 %
Качество диапазона 100.0 %
CRC теста DB5CC952
CRC копии DB5CC952
Копирование... OK
Ошибок не произошло
Конец отчёта
Правила, инструкции, FAQ!!!
Торрент  Добавлен [26 июн 2020, 17:33] Скачать торрент Магнет ссылка
Скачать торрент
[ Размер 18.51 КБ / Просмотров 10 ]

Статус
Проверен 
 
Размер  457.91 МБ
Приватный: Нет (DHT включён)
.torrent скачан  0
 


     Отправить личное сообщение
   
Страница 1 из 1
Показать сообщения за:  Поле сортировки  
Начать новую тему Ответить на тему


Сейчас этот форум просматривают: нет зарегистрированных пользователей и гости: 0


Вы не можете начинать темы
Вы не можете отвечать на сообщения
Вы не можете редактировать свои сообщения
Вы не можете удалять свои сообщения
Вы не можете добавлять вложения

Перейти:  
cron