Начать новую тему Ответить на тему
Статистика раздачи
Размер: 365.62 МБ | Добавлен: 26 июн 2020, 18:01 | Скачали: 0
Сидеров: 0  [0 байт/сек]    Личеров: 0  [0 байт/сек]
Пред. тема | След. тема 

Автор
Сообщение

СообщениеДобавлено: 26 июн 2020, 18:01 

Ответить с цитатой 

God Module - Empath
Жанр: Dark Electro
Год выпуска диска: 2004
Производитель диска: США
Аудио кодек: FLAC
Тип рипа: image+.cue
Битрейт аудио: lossless
Продолжительность: 42:42.43
Трэклист:
01. Catalyst
02. Telekinetic
03. As The Night Falls
04. Entranced
05. Reverse Inversion
06. Curse
07. Levitation
08. Dear Dead Flesh
09. Ever After
10. Lunacy
Доп. информация: В 1999 году Jasyn Bangert начал создавать музыку по именем God Module. После 2 demo высланых крепким лэйблам, God Module бысро заключил договор с канадской Inception Records. God Module это комбинация EBM, Techno, Darkwave, Goth and Synth Pop.
Код:
Exact Audio Copy V0.99 prebeta 1 from 25. May 2007
Отчёт EAC об извлечении, выполненном 6. июля 2008, 14:45
God Module / Empath
Дисковод: PIONEER DVD-RW  DVR-111D   Adapter: 0  ID: 0
Режим чтения                 : Достоверность
Использование точного потока : Да
Отключение кэша аудио        : Да
Использование указателей C2  : Нет
Коррекция смещения при чтении                 : 48
Способность читать области Lead-in и Lead-out : Да
Заполнение пропущенных сэмплов тишиной        : Да
Удаление блоков с тишиной в начале и конце    : Нет
Интерфейс                                     : Встроенный Win32-интерфейс для Win NT/2000
Выходной формат          : Пользовательский кодировщик
Выбранный битрейт        : 1024 kBit/s
Качество                 : Высокий
Добавление ID3-тэга      : Да
Утилита сжатия           : C:\Program Files\Exact Audio Copy\FLAC\FLAC.EXE
Дополнительные параметры : -6 -V -T "ARTIST=%a" -T "TITLE=%t" -T "ALBUM=%g" -T "DATE=%y" -T "TRACKNUMBER=%n" -T "GENRE=%m" -T "COMMENT=%e" %s -o %d
TOC извлечённого CD
     Трек |   Старт  | Длительность | Начальный сектор | Конечный сектор
    ---------------------------------------------------------------------
       1  |  0:00.00 |    3:04.31   |           0      |      13830
       2  |  3:04.31 |    5:11.07   |       13831      |      37162
       3  |  8:15.38 |    4:20.22   |       37163      |      56684
       4  | 12:35.60 |    5:16.32   |       56685      |      80416
       5  | 17:52.17 |    4:38.00   |       80417      |     101266
       6  | 22:30.17 |    5:07.36   |      101267      |     124327
       7  | 27:37.53 |    4:41.14   |      124328      |     145416
       8  | 32:18.67 |    5:26.04   |      145417      |     169870
       9  | 37:44.71 |    4:57.47   |      169871      |     192192
      10  | 42:42.43 |    5:35.08   |      192193      |     217325
Характеристики диапазона извлечения и сообщения об ошибках
Выбранный диапазон
     Имя файла D:\123\God Module - Empath [2004]\God Module - Empath.wav
     Пиковый уровень 99.9 %
     Качество диапазона 100.0 %
     CRC теста E8869ECA
     CRC копии E8869ECA
     Копирование... OK
Ошибок не произошло
Конец отчёта
Правила, инструкции, FAQ!!!
Торрент  Добавлен [26 июн 2020, 18:01] Скачать торрент Магнет ссылка
Скачать торрент
[ Размер 14.9 КБ / Просмотров 6 ]

Статус
Проверен 
 
Размер  365.62 МБ
Приватный: Нет (DHT включён)
.torrent скачан  0
 


     Отправить личное сообщение
   
Страница 1 из 1
Показать сообщения за:  Поле сортировки  
Начать новую тему Ответить на тему


Сейчас этот форум просматривают: нет зарегистрированных пользователей и гости: 0


Вы не можете начинать темы
Вы не можете отвечать на сообщения
Вы не можете редактировать свои сообщения
Вы не можете удалять свои сообщения
Вы не можете добавлять вложения

Перейти:  
cron