Начать новую тему Ответить на тему
Статистика раздачи
Размер: 431.75 МБ | Добавлен: 26 июн 2020, 17:46 | Скачали: 0
Сидеров: 2  [0 байт/сек]    Личеров: 0  [0 байт/сек]
Пред. тема | След. тема 

Автор
Сообщение

СообщениеДобавлено: 26 июн 2020, 17:46 

Ответить с цитатой 

Freaky Mind - Surrogate




• Жанр: Dark Electro
• Носитель: WEB
• Год издания: 2014
• Издатель (лейбл) skyQode
• Номер по каталогу: SQD12
• Страна-производитель релиза: Germany | Russia
• Страна исполнителя (группы): Russia
• Аудиокодек: FLAC (*.flac)
• Тип рипа: tracks
• Продолжительность: 00:55:15
• Источник (релизер):NTDMMANIAC ®
• WEB релиз: bandcamp
• Наличие сканов: front

01 - Unicorn Porn (00:04:32)
02 - Estrangement (00:03:33)
03 - Peeping Hole (00:05:40)
04 - Blogposter (00:05:35)
05 - Touch (Crime) (00:04:36)
06 - Anticompromizer (00:05:18)
07 - Hit Me (00:04:32)
08 - Soul Corruptor (00:04:40)
09 - Dependence (00:03:31)
10 - Handhardcore (00:04:46)
11 - Hit Me (Diversant13 Remix) (00:03:59)
12 - Anticompromizer (Freakangel Remix) (00:04:28)

foobar2000 1.2.5 / Замер динамического диапазона (DR) 1.1.1
Дата отчёта: 2018-05-01 21:43:05
--------------------------------------------------------------------------------
Анализ: Freaky Mind / Surrogate
--------------------------------------------------------------------------------
DR Пики RMS Продолжительность трека
--------------------------------------------------------------------------------
DR4 0.00 дБ -5.92 дБ 4:32 01-Unicorn Porn
DR4 -0.02 дБ -6.15 дБ 3:34 02-Estrangement
DR4 0.00 дБ -5.99 дБ 5:40 03-Peeping Hole
DR5 0.00 дБ -6.83 дБ 5:35 04-Blogposter
DR5 0.00 дБ -6.59 дБ 4:37 05-Touch (Crime)
DR5 -0.10 дБ -7.65 дБ 5:19 06-Anticompromizer
DR4 0.00 дБ -5.42 дБ 4:33 07-Hit Me
DR5 0.00 дБ -8.34 дБ 4:40 08-Soul Corruptor
DR5 0.00 дБ -6.39 дБ 3:31 09-Dependence
DR4 0.00 дБ -6.67 дБ 4:46 10-Handhardcore
DR3 0.00 дБ -4.00 дБ 4:00 11-Hit Me (Diversant:13 Remix)
DR5 0.00 дБ -6.22 дБ 4:29 12-Anticompromizer (Freakangel Remix)
--------------------------------------------------------------------------------
Количество треков: 12
Реальные значения DR: DR5
Частота: 44100 Гц
Каналов: 2
Разрядность: 16
Битрейт: 1015 кбит/с
Кодек: FLAC
================================================================================

Код:
-----------------------
DON'T MODIFY THIS FILE
-----------------------
PERFORMER: auCDtect Task Manager, ver. 1.6.0 RC1 build 1.6.0.1
Copyright (c) 2008-2010 y-soft. All rights reserved
[url=http://y-soft.org]http://y-soft.org[/url]
ANALYZER: auCDtect: CD records authenticity detector, version 0.8.2
Copyright (c) 2004 Oleg Berngardt. All rights reserved.
Copyright (c) 2004 Alexander Djourik. All rights reserved.
FILE: 12 - Anticompromizer (Freakangel Remix).flac
  Size: 34378947 Hash: 0DC6823F596211B99550FC8479EAE5A3 Accuracy: -m0
  Conclusion: CDDA 99%
  Signature: ABF143DFBC444EC66D154EAB66200AE2B0E7B6CA
FILE: 11 - Hit Me (Diversant13 Remix).flac
  Size: 34241391 Hash: FE42E13758FE0C1D51E741FDF419C161 Accuracy: -m0
  Conclusion: CDDA 100%
  Signature: 467506AEC172D83F98C650DA462F2EB76FEFF195
FILE: 10 - Handhardcore.flac
  Size: 38552380 Hash: 5CE3020E3957A7640799117E35711799 Accuracy: -m0
  Conclusion: CDDA 100%
  Signature: 7EA798DC58948BBF836658656B44303EA6C09147
FILE: 09 - Dependence.flac
  Size: 29790664 Hash: BDA6DCC91A12A945F6020C7030ADB211 Accuracy: -m0
  Conclusion: CDDA 100%
  Signature: 3B0C375B71012169DBD7ED45F3DDA3209C9955D3
FILE: 08 - Soul Corruptor.flac
  Size: 38134142 Hash: 5C8D81418803995B908A799263889CE3 Accuracy: -m0
  Conclusion: CDDA 100%
  Signature: 0096C8AEEA033D670C4FED953CC53F9E7D6BC2B2
FILE: 07 - Hit Me.flac
  Size: 37471079 Hash: 0D7C36894E95B3101A944AEA868063F8 Accuracy: -m0
  Conclusion: CDDA 100%
  Signature: 4FF548B1B4CC274CDE165AA4A3DE236D11B7E7D0
FILE: 06 - Anticompromizer.flac
  Size: 40608943 Hash: BFE25A6D37DEBB352CCCA0A5F0C49383 Accuracy: -m0
  Conclusion: CDDA 100%
  Signature: 50FC992EB1E50EE2A7F3094DF7BC759BC7D73734
FILE: 05 - Touch (Crime).flac
  Size: 38518317 Hash: B9C83306D911A6D9FBBB82B9F5C2A279 Accuracy: -m0
  Conclusion: CDDA 100%
  Signature: 721887A9A8EA4228A385B1CD0FAE151F6D90E7E4
FILE: 04 - Blogposter.flac
  Size: 45681577 Hash: 5354E3201895B8E3D382D2A46B03F6F2 Accuracy: -m0
  Conclusion: CDDA 100%
  Signature: 1876D493EED649DE2103F2AAF64F02832B25A15B
FILE: 03 - Peeping Hole.flac
  Size: 47994997 Hash: B180C4E10245DBA1B7082F4BAE140A6F Accuracy: -m0
  Conclusion: CDDA 100%
  Signature: 4806A8AD69703D6ED7E790EED717C6C0586AC550
FILE: 02 - Estrangement.flac
  Size: 29877472 Hash: 6B0E3D6A580411CF0C47083C2BE47198 Accuracy: -m0
  Conclusion: CDDA 100%
  Signature: 9EE271DD66A9CB087440C44926A28E10D13E5A83
FILE: 01 - Unicorn Porn.flac
  Size: 37208831 Hash: B19D5D7C20C42F40694372E95DD27B0D Accuracy: -m0
  Conclusion: CDDA 100%
  Signature: 5B84B1E0728A484B0C363175003E7D24C49BC8BD


Правила, инструкции, FAQ!!!
Торрент  Добавлен [26 июн 2020, 17:46] Скачать торрент Магнет ссылка
Скачать торрент
[ Размер 18.01 КБ / Просмотров 9 ]

Статус
Проверен 
 
Размер  431.75 МБ
Приватный: Нет (DHT включён)
.torrent скачан  0
 


     Отправить личное сообщение
   
Страница 1 из 1
Показать сообщения за:  Поле сортировки  
Начать новую тему Ответить на тему


Сейчас этот форум просматривают: нет зарегистрированных пользователей и гости: 0


Вы не можете начинать темы
Вы не можете отвечать на сообщения
Вы не можете редактировать свои сообщения
Вы не можете удалять свои сообщения
Вы не можете добавлять вложения

Перейти:  
cron