Начать новую тему Ответить на тему
Статистика раздачи
Размер: 982.86 МБ | Добавлен: 26 июн 2020, 20:23 | Скачали: 0
Сидеров: 0  [0 байт/сек]    Личеров: 0  [0 байт/сек]
Пред. тема | След. тема 

Автор
Сообщение

СообщениеДобавлено: 26 июн 2020, 20:23 

Ответить с цитатой 

FGFC820 / Law & Ordnance [limited edition]
Жанр: Dark Electro
Страна-производитель диска: Germany
Год издания: 2008
Издатель (лейбл): NoiTekk
Номер по каталогу: NTK030
Страна: USA
Аудиокодек: FLAC (*.flac)
Тип рипа: image+.cue
Битрейт аудио: lossless
Продолжительность: 66:39 + 58:33
Источник (релизер): собственноручный рип
Наличие сканов в содержимом раздачи: да
Треклист:
Studio Album
1-1. Hello, Baghdad 4:57
1-2. Democracy 5:07
1-3. Killing Fields 5:36
1-4. Resolution 6 2:53
1-5. Ich Bin Ein Ausländer 3:53
1-6. Vengeance 5:11
1-7. Momentum 5:15
1-8. Resolution 3:58
1-9. Emotion 5:13
1-10. Forsaken 6:00
1-11. Not The World I Remember 5:26
1-12. Resolution 8 2:03
1-13. Dream For Tomorrow 4:52
1-14. The Heart Of America 6:08
Limited Edition Bonus CD
2-1. Children Of Decay (Remix By C-Drone Defect) Remix – C-Drone Defect 6:41
2-2. Anthem (Remix By Phil J Of Steinkind) Remix – Steinkind 6:15
2-3. Existence (Remix By Combichrist) Remix – Combichrist 4:42
2-4. Democracy (Remix By C-Lekktor) Remix – C-Lekktor 4:59
2-5. Killing Fields (No End In Sight Remix By Memmaker) Remix – Memmaker 5:23
2-6. America (Remix By Distorted Memory) Remix – Distorted Memory 5:44
2-7. Perfect War (Remix By SAM) Remix – SAM (19) 4:45
2-8. Children Of Decay (Stixmix Remix By Northborne) Remix – Northborne 5:24
2-9. Democracy (Remix By Xentrifuge) Remix – Xentrifuge 4:09
2-10. Killing Fields (Remix By Acylum) Remix – Acylum 4:42
2-11. America (Remix By Mesmer's Eyes) Remix – Mesmer's Eyes 5:43
Код:
Exact Audio Copy V0.99 prebeta 5 from 4. May 2009
Отчёт EAC об извлечении, выполненном 20. ноября 2012, 10:42
FGFC820 / Law & Ordnance - Disc 1
Дисковод: ATAPI   iHAS124   Y   Adapter: 0  ID: 1
Режим чтения                 : Достоверность
Использование точного потока : Да
Отключение кэша аудио        : Да
Использование указателей C2  : Нет
Коррекция смещения при чтении                     : 48
Способность читать области Lead-in и Lead-out     : Нет
Заполнение пропущенных сэмплов тишиной            : Да
Удаление блоков с тишиной в начале и конце        : Нет
При вычислениях CRC использовались нулевые сэмплы : Да
Интерфейс                                         : Встроенный Win32-интерфейс для Win NT/2000
Выходной формат : Внутренние WAV-операции
Формат сэмплов  : 44.100 Гц; 16 бит; стерео
TOC извлечённого CD
     Трек |   Старт  | Длительность | Начальный сектор | Конечный сектор
    ---------------------------------------------------------------------
       1  |  0:00.00 |    4:57.31   |           0      |      22305
       2  |  4:57.31 |    5:07.55   |       22306      |      45385
       3  | 10:05.11 |    5:36.15   |       45386      |      70600
       4  | 15:41.26 |    2:53.59   |       70601      |      83634
       5  | 18:35.10 |    3:53.39   |       83635      |     101148
       6  | 22:28.49 |    5:11.09   |      101149      |     124482
       7  | 27:39.58 |    5:15.59   |      124483      |     148166
       8  | 32:55.42 |    3:58.25   |      148167      |     166041
       9  | 36:53.67 |    5:13.55   |      166042      |     189571
      10  | 42:07.47 |    6:00.15   |      189572      |     216586
      11  | 48:07.62 |    5:26.45   |      216587      |     241081
      12  | 53:34.32 |    2:03.49   |      241082      |     250355
      13  | 55:38.06 |    4:52.36   |      250356      |     272291
      14  | 60:30.42 |    6:08.31   |      272292      |     299922
Характеристики диапазона извлечения и сообщения об ошибках
Выбранный диапазон
     Имя файла E:\! РАЗДАЧИ\FGFC820 - Law & Ordnance\FGFC820 - Law & Ordnance - Disc 1.wav
     Пиковый уровень 98.8 %
     Качество диапазона 100.0 %
     CRC теста CF7351E2
     CRC копии CF7351E2
     Копирование... OK
Ошибок не произошло
AccurateRip: сводка
Трек  1  точное извлечение (доверие 2)  [982CE0B2]
Трек  2  точное извлечение (доверие 2)  [DF2F5F82]
Трек  3  точное извлечение (доверие 2)  [3B414C18]
Трек  4  точное извлечение (доверие 2)  [F9E66FE6]
Трек  5  точное извлечение (доверие 2)  [3B758616]
Трек  6  точное извлечение (доверие 2)  [FAAD2FC1]
Трек  7  точное извлечение (доверие 2)  [C89FB568]
Трек  8  точное извлечение (доверие 2)  [66B8A5B8]
Трек  9  точное извлечение (доверие 2)  [4A6BD92C]
Трек 10  точное извлечение (доверие 2)  [9689E6BC]
Трек 11  точное извлечение (доверие 2)  [BD814A21]
Трек 12  точное извлечение (доверие 2)  [83044246]
Трек 13  точное извлечение (доверие 2)  [7C02BF6D]
Трек 14  точное извлечение (доверие 2)  [7945E3A2]
Все треки извлечены точно
Конец отчёта
Код:
Exact Audio Copy V0.99 prebeta 5 from 4. May 2009
Отчёт EAC об извлечении, выполненном 20. ноября 2012, 11:13
FGFC820 / Law & Ordnance - Disc 2
Дисковод: ATAPI   iHAS124   Y   Adapter: 0  ID: 1
Режим чтения                 : Достоверность
Использование точного потока : Да
Отключение кэша аудио        : Да
Использование указателей C2  : Нет
Коррекция смещения при чтении                     : 48
Способность читать области Lead-in и Lead-out     : Нет
Заполнение пропущенных сэмплов тишиной            : Да
Удаление блоков с тишиной в начале и конце        : Нет
При вычислениях CRC использовались нулевые сэмплы : Да
Интерфейс                                         : Встроенный Win32-интерфейс для Win NT/2000
Выходной формат : Внутренние WAV-операции
Формат сэмплов  : 44.100 Гц; 16 бит; стерео
TOC извлечённого CD
     Трек |   Старт  | Длительность | Начальный сектор | Конечный сектор
    ---------------------------------------------------------------------
       1  |  0:00.00 |    6:41.15   |           0      |      30089
       2  |  6:41.15 |    6:15.66   |       30090      |      58280
       3  | 12:57.06 |    4:42.13   |       58281      |      79443
       4  | 17:39.19 |    4:59.57   |       79444      |     101925
       5  | 22:39.01 |    5:23.28   |      101926      |     126178
       6  | 28:02.29 |    5:44.61   |      126179      |     152039
       7  | 33:47.15 |    4:45.67   |      152040      |     173481
       8  | 38:33.07 |    5:24.01   |      173482      |     197782
       9  | 43:57.08 |    4:09.28   |      197783      |     216485
      10  | 48:06.36 |    4:42.43   |      216486      |     237678
      11  | 52:49.04 |    5:43.66   |      237679      |     263469
Характеристики диапазона извлечения и сообщения об ошибках
Выбранный диапазон
     Имя файла E:\! РАЗДАЧИ\FGFC820 - Law & Ordnance\FGFC820 - Law & Ordnance - Disc 2.wav
     Пиковый уровень 100.0 %
     Качество диапазона 99.9 %
     CRC теста D59AC7BD
     CRC копии D59AC7BD
     Копирование... OK
Ошибок не произошло
AccurateRip: сводка
Трек  1  точное извлечение (доверие 3)  [B7D42502]
Трек  2  точное извлечение (доверие 3)  [4BEEB233]
Трек  3  точное извлечение (доверие 3)  [882EFD57]
Трек  4  точное извлечение (доверие 3)  [469FD944]
Трек  5  точное извлечение (доверие 3)  [BEDF29AF]
Трек  6  точное извлечение (доверие 3)  [8260888C]
Трек  7  точное извлечение (доверие 3)  [C3D9704C]
Трек  8  точное извлечение (доверие 3)  [436B629E]
Трек  9  точное извлечение (доверие 3)  [8FB45BB3]
Трек 10  точное извлечение (доверие 3)  [578CB20B]
Трек 11  точное извлечение (доверие 3)  [3E098206]
Все треки извлечены точно
Конец отчёта
Доп. информация: Limited numbered edition of 1000 copies, comes in a cardboard box with the normal album in a jewelcase, and a remix album in a cardboard sleeve.
Правила, инструкции, FAQ!!!
Торрент  Добавлен [26 июн 2020, 20:23] Скачать торрент Магнет ссылка
Скачать торрент
[ Размер 40.55 КБ / Просмотров 12 ]

Статус
Проверен 
 
Размер  982.86 МБ
Приватный: Нет (DHT включён)
.torrent скачан  0
 


     Отправить личное сообщение
   
Страница 1 из 1
Показать сообщения за:  Поле сортировки  
Начать новую тему Ответить на тему


Сейчас этот форум просматривают: нет зарегистрированных пользователей и гости: 0


Вы не можете начинать темы
Вы не можете отвечать на сообщения
Вы не можете редактировать свои сообщения
Вы не можете удалять свои сообщения
Вы не можете добавлять вложения

Перейти:  
cron